<?xml version="1.0" standalone="no"?>
<!DOCTYPE svg PUBLIC "-//W3C//DTD SVG 1.1//EN" "http://www.w3.org/Graphics/SVG/1.1/DTD/svg11.dtd" >
<svg>
<metadata>
Created by FontForge 20090622 at Wed Mar 29 15:40:43 2017
 By deploy user
&#194;&#169; 2006 Microsoft Corporation. All Rights Reserved.
</metadata>
<defs>
<font id="Meiryo" horiz-adv-x="2048" vert-adv-y="2048" >
  <font-face 
    font-family="Meiryo"
    font-weight="400"
    font-stretch="normal"
    units-per-em="2048"
    panose-1="2 11 6 4 3 5 4 4 2 4"
    ascent="1602"
    descent="-446"
    x-height="1130"
    cap-height="1507"
    bbox="-537 -1077 2869 2328"
    underline-thickness="102"
    underline-position="-154"
    unicode-range="U+0021-U+2F9F4"
  />
    <missing-glyph />
    <glyph glyph-name="uniFB01" unicode="fi" horiz-adv-x="1210" 
d="M1038 0h-176v989h-503v-989h-176v986h-129v144h129v44q0 200 100 305.5t285 105.5q88 0 199 -20v-161h-6q-92 30 -161 30q-135 0 -191 -62.5t-56 -207.5v-34h685v-1130zM1049 1356h-197v183h197v-183z" />
    <glyph glyph-name="uniFB02" unicode="fl" horiz-adv-x="1217" 
d="M1045 0h-176v1408q-94 27 -228 27q-160 0 -224 -60t-64 -211v-34h329v-144h-323v-986h-176v986h-129v144h129v38q0 417 436 417q91 0 239 -24l187 14v-1575z" />
    <glyph glyph-name="uniFB00" unicode="ff" horiz-adv-x="1374" 
d="M1458 1403h-6q-92 30 -163 30q-135 0 -192 -63t-57 -207v-33h346v-143h-340v-987h-176v990h-511v-990h-176v987h-129v143h129v44q0 199 100 305t286 106q91 0 202 -20v-162h-6q-92 30 -163 30q-135 0 -192 -63t-57 -207v-33h517v44q0 199 100 305t286 106q91 0 202 -20
v-162z" />
    <glyph glyph-name="uniFB03" unicode="ffi" horiz-adv-x="1897" 
d="M1046 990v-990h-176v990h-511v-990h-176v987h-129v143h129v44q0 199 100 305t286 106q91 0 202 -20v-162h-6q-92 30 -163 30q-135 0 -192 -63t-57 -207v-33h517v44q0 200 100 305.5t285 105.5q88 0 199 -20v-161h-6q-92 30 -161 30q-135 0 -191 -62.5t-56 -207.5v-34h685
v-1130h-176v990h-503zM1736 1356h-197v183h197v-183z" />
    <glyph glyph-name="uniFB04" unicode="ffl" horiz-adv-x="1904" 
d="M1046 990v-990h-176v990h-511v-990h-176v987h-129v143h129v44q0 199 100 305t286 106q91 0 202 -20v-162h-6q-92 30 -163 30q-135 0 -192 -63t-57 -207v-33h517v38q0 417 436 417q91 0 239 -24l187 14v-1575h-176v1408q-94 27 -228 27q-160 0 -224 -60t-64 -211v-34h329
v-140h-323z" />
    <glyph glyph-name="ae_gravecomb.liga" unicode="&#xe6;&#x300;" horiz-adv-x="1916" 
d="M1835 573h-825q0 -447 401 -447q215 0 389 135h12v-192q-242 -95 -397 -95q-321 0 -475 209q-238 -212 -490 -212q-157 0 -261.5 98t-104.5 248q0 200 156 295t608 97v69q0 116 -68.5 172t-233.5 56q-159 0 -355 -83h-9v183q190 54 362 54q308 0 426 -189
q162 191 397 191q223 0 345.5 -132.5t122.5 -380.5v-76zM1666 706q-24 313 -305 313q-142 0 -234 -84t-115 -229h654zM882 296q-43 120 -43 277q-287 -11 -382 -34.5t-143 -76t-48 -131.5q0 -199 249 -199q200 0 367 164zM1044 1316h-136l-277 374h231z" />
    <glyph glyph-name="uni0254_acutecomb.liga" unicode="&#x254;&#x301;" horiz-adv-x="1038" 
d="M47 67v196h8q188 -137 349 -137q173 0 269 115t96 328t-95.5 325t-269.5 112q-166 0 -349 -135h-8v192q203 95 354 95q261 0 405.5 -153t144.5 -436q0 -277 -149 -436t-402 -159q-167 0 -353 93zM744 1690l-277 -374h-136l182 374h231z" />
    <glyph glyph-name="uni0254_gravecomb.liga" unicode="&#x254;&#x300;" horiz-adv-x="1038" 
d="M47 67v196h8q188 -137 349 -137q173 0 269 115t96 328t-95.5 325t-269.5 112q-166 0 -349 -135h-8v192q203 95 354 95q261 0 405.5 -153t144.5 -436q0 -277 -149 -436t-402 -159q-167 0 -353 93zM530 1316h-136l-277 374h231z" />
    <glyph glyph-name="uni0259_acutecomb.liga" unicode="&#x259;&#x301;" horiz-adv-x="1182" 
d="M80 587h835q0 204 -110.5 313.5t-305.5 109.5q-217 0 -388 -122h-8v171q216 103 402 103q280 0 435 -152.5t155 -431.5q0 -277 -149 -440.5t-395 -163.5q-223 0 -347 134t-124 382v97zM915 454h-663q8 -337 309 -337q152 0 246 90t108 247zM864 1690l-277 -374h-136
l182 374h231z" />
    <glyph glyph-name="uni0259_gravecomb.liga" unicode="&#x259;&#x300;" horiz-adv-x="1182" 
d="M80 587h835q0 204 -110.5 313.5t-305.5 109.5q-217 0 -388 -122h-8v171q216 103 402 103q280 0 435 -152.5t155 -431.5q0 -277 -149 -440.5t-395 -163.5q-223 0 -347 134t-124 382v97zM915 454h-663q8 -337 309 -337q152 0 246 90t108 247zM640 1316h-136l-277 374h231z
" />
    <glyph glyph-name="uni025A_acutecomb.liga" unicode="&#x25a;&#x301;" horiz-adv-x="1501" 
d="M1501 470q-60 -27 -127 -27q-190 0 -244 197l-39 -9q2 -32 2 -55q0 -277 -148 -439.5t-394 -162.5q-223 0 -347 134t-124 382v86l810 167q-83 267 -391 267q-217 0 -388 -122h-8v171q216 103 402 103q219 0 365 -99t197 -284l176 36l12 -74q25 -155 138 -155q54 0 102 24
h6v-140zM915 595l-663 -136q8 -342 309 -342q174 0 264.5 112.5t90.5 320.5q0 29 -1 45zM864 1690l-277 -374h-136l182 374h231z" />
    <glyph glyph-name="uni025A_gravecomb.liga" unicode="&#x25a;&#x300;" horiz-adv-x="1501" 
d="M1501 470q-60 -27 -127 -27q-190 0 -244 197l-39 -9q2 -32 2 -55q0 -277 -148 -439.5t-394 -162.5q-223 0 -347 134t-124 382v86l810 167q-83 267 -391 267q-217 0 -388 -122h-8v171q216 103 402 103q219 0 365 -99t197 -284l176 36l12 -74q25 -155 138 -155q54 0 102 24
h6v-140zM915 595l-663 -136q8 -342 309 -342q174 0 264.5 112.5t90.5 320.5q0 29 -1 45zM640 1316h-136l-277 374h231z" />
    <glyph glyph-name="uni028C_acutecomb.liga" unicode="&#x28c;&#x301;" horiz-adv-x="1159" 
d="M1127 0h-191l-363 882l-358 -882h-184l481 1130h137zM934 1690l-277 -374h-136l182 374h231z" />
    <glyph glyph-name="uni028C_gravecomb.liga" unicode="&#x28c;&#x300;" horiz-adv-x="1159" 
d="M1127 0h-191l-363 882l-358 -882h-184l481 1130h137zM650 1316h-136l-277 374h231z" />
    <glyph glyph-name="uni30FE" unicode="&#x30fd;&#x3099;" 
d="M1389 1102l-115 -51q-70 157 -146 280l109 49q89 -138 152 -278zM1679 1163l-114 -47q-66 154 -144 277l105 49q77 -120 153 -279zM1444 422l-133 -115q-93 128 -367 422q-292 312 -387 397l107 107q116 -106 397 -396q296 -307 383 -415z" />
    <glyph glyph-name="uni309E" unicode="&#x309d;&#x3099;" 
d="M1458 580l-33 -129q-61 -18 -283 -114q-293 -126 -304 -130l-64 117q99 40 266 117q178 82 207 102q-159 108 -376.5 327.5t-313.5 370.5l121 76q108 -169 367 -409q242 -224 413 -328zM1389 1102l-115 -51q-70 157 -146 280l109 49q89 -138 152 -278zM1679 1163
l-114 -47q-66 154 -144 277l105 49q77 -120 153 -279z" />
    <glyph glyph-name="uni02E9_uni02E5.liga" unicode="&#x2e9;&#x2e5;" horiz-adv-x="804" 
d="M634 0h-154v1099l-341 -1099l-124 46l465 1461h154v-1507z" />
    <glyph glyph-name="uni02E5_uni02E9.liga" unicode="&#x2e5;&#x2e9;" horiz-adv-x="804" 
d="M634 0h-154l-465 1461l124 46l341 -1099v1099h154v-1507z" />
    <glyph glyph-name="uni304C" unicode="&#x304b;&#x3099;" 
d="M688 1438q0 -90 -9 -205h384q142 0 222.5 -101.5t80.5 -265.5q0 -403 -85 -668t-298 -265q-124 0 -348 118l49 127q54 -26 150.5 -57.5t132.5 -31.5q82 -1 130.5 86.5t80 246t31.5 376.5q0 199 -53.5 251.5t-141.5 52.5h-348q-35 -340 -161.5 -652t-319.5 -528l-113 82
q130 154 258.5 428.5t173.5 648.5h-391v134h407q7 70 7 403h161v-180zM1915 609l-156 -41q-136 501 -397 780l117 80q137 -140 263 -378.5t173 -440.5zM2020 1469l-115 -47q-67 155 -143 277l106 51q69 -107 152 -281zM1733 1428l-115 -51q-72 161 -145 280l108 50
q87 -135 152 -279z" />
    <glyph glyph-name="uni304E" unicode="&#x304d;&#x3099;" 
d="M1614 492l-111 -111q-108 73 -268 116.5t-309 43.5q-324 0 -434.5 -67.5t-110.5 -186.5q0 -104 128 -163t503 -59q332 0 588 42l4 -144q-223 -37 -596 -37q-431 0 -609 92.5t-178 268.5q0 188 169 286.5t454 98.5q306 0 535 -86q-100 129 -185 289h-1036v129h974
q-57 129 -91 237h-826v129h785q-32 125 -49 252l159 14q14 -90 51 -266h578v-129h-543q20 -65 91 -237h548v-129h-482q86 -158 261 -383zM1999 1469l-115 -47q-66 155 -143 277l107 51q69 -107 151 -281zM1708 1444l-114 -51q-72 162 -146 281l109 49q87 -135 151 -279z" />
    <glyph glyph-name="uni3050" unicode="&#x304f;&#x3099;" 
d="M1594 12l-125 -123q-307 288 -684 539l-200 129.5t-164.5 115.5t-54 66t-20.5 75q0 94 123 181q355 228 534 359.5t353 288.5l123 -103q-358 -300 -834 -602q-93 -53 -116 -73t-23 -47q0 -24 14.5 -38t121.5 -84q402 -260 598 -402t354 -282zM1909 1153l-115 -47
q-66 155 -143 276l106 52q69 -108 152 -281zM1618 1092l-115 -52q-71 162 -145 281l109 49q87 -135 151 -278z" />
    <glyph glyph-name="uni3052" unicode="&#x3051;&#x3099;" 
d="M1004 -88l-64 117q218 82 319 237.5t101 417.5v365h-649v135h649v383h158v-383h403v-135h-403v-381q0 -586 -514 -756zM697 514q-245 -377 -279 -530l-123 8q-121 336 -121 716q0 358 115 836l158 -28q-122 -483 -122 -801q0 -257 48 -486q123 209 215 347zM2030 1468
l-115 -51q-66 155 -143 277l102 47q99 -154 156 -273zM1768 1403l-115 -51q-72 161 -145 280l108 49q87 -134 152 -278z" />
    <glyph glyph-name="uni3054" unicode="&#x3053;&#x3099;" 
d="M1593 1292q-267 -104 -513 -247l-72 100l305 158l-4 20q-348 -6 -1045 -33l-8 140q462 19 1074 19q144 0 203 -3zM1735 21q-299 -46 -673 -46h-118q-474 0 -641.5 96t-167.5 275q0 218 205 397l109 -81q-162 -159 -162 -305q0 -127 145.5 -183t593.5 -56q348 0 684 50z
M2028 1471l-115 -47q-66 155 -143 277l104 49q81 -125 154 -279zM1749 1430l-114 -51q-72 161 -146 280l109 49q87 -135 151 -278z" />
    <glyph glyph-name="uni3056" unicode="&#x3055;&#x3099;" 
d="M1723 0q-235 -63 -568 -63q-878 0 -878 409q0 212 182 330.5t459 118.5q228 0 465 -43q-99 140 -227 386h-976v131h914q-60 146 -100 324l155 23q45 -202 107 -347h659v-131h-598q184 -354 365 -481l-74 -118q-238 129 -682 129q-207 0 -347.5 -83t-139.5 -233
q0 -280 722 -280q276 0 531 63zM1979 1469l-115 -47q-67 155 -143 276l104 49q80 -125 154 -278zM1688 1419l-115 -51q-72 162 -145 281l108 49q87 -135 152 -279z" />
    <glyph glyph-name="uni3058" unicode="&#x3057;&#x3099;" 
d="M1878 700q-113 -402 -333 -589t-566 -187q-135 0 -240 27t-179.5 80.5t-119.5 134t-58 174.5t-13 311q0 369 45 906h164q-53 -515 -53 -914q0 -139 6.5 -234.5t58 -176.5t153.5 -123t253 -42q271 0 451 152.5t292 532.5zM1508 1395l-115 -47q-67 155 -143 276l104 49
q80 -125 154 -278zM1217 1333l-115 -51q-72 162 -145 281l108 49q87 -135 152 -279z" />
    <glyph glyph-name="uni305A" unicode="&#x3059;&#x3099;" 
d="M1105 856q-57 113 -238 113q-89 -1 -157.5 -73t-68.5 -161q0 -96 54.5 -155.5t147.5 -59.5q117 0 188 76.5t73 202.5zM1895 1266h-631v-389q65 -116 65 -318q0 -264 -194.5 -443.5t-480.5 -197.5l-41 125q239 17 403 165t164 367q0 37 -4 67q-26 -116 -118 -182.5
t-220 -66.5q-147 0 -248 92.5t-100 232.5q0 161 113 268.5t279 107.5q124 0 220 -73v241h-1001v135h1001v235h162v-233h345q-74 165 -140 272l108 49q84 -130 152 -280l-92 -41h258v-133zM2024 1478l-115 -47q-67 155 -143 276l106 51q69 -107 152 -280z" />
    <glyph glyph-name="uni305C" unicode="&#x305b;&#x3099;" 
d="M1661 -49q-245 -10 -490 -10q-359 0 -505 23.5t-227.5 112t-81.5 271.5v653h-312v131h312v420h157v-420h868q0 254 -19 433l156 12q19 -187 19 -421v-24h344v-131h-346q-5 -158 -19.5 -320.5t-73 -217t-157.5 -54.5q-150 0 -387 171l59 116q201 -135 309 -135
q69 0 88.5 85t25.5 355h-867v-651q0 -127 60.5 -187.5t223 -70.5t432.5 -10q257 0 431 16v-147zM2028 1473l-115 -47q-66 155 -143 276l106 52q69 -108 152 -281zM1757 1432l-114 -51q-72 161 -146 280l109 50q87 -135 151 -279z" />
    <glyph glyph-name="uni305E" unicode="&#x305d;&#x3099;" 
d="M1678 72l-5 -144q-79 -4 -155 -4q-398 0 -618 122t-220 362q0 220 178 364q-400 -28 -743 -80l-12 142q138 9 255 34t189 52.5t300 160.5t497 338q-198 -10 -786 -10h-244v137h1183l78 -104q-286 -279 -805 -531l4 -14q334 30 863 30q114 0 223 -1l-2 -142q-201 8 -403 8
q-201 0 -382 -7q-239 -133 -239 -373q0 -346 679 -346q80 0 165 6zM2033 1476l-115 -47q-66 155 -143 276l106 48q77 -119 152 -277zM1776 1425l-115 -52q-72 162 -145 281l108 49q87 -135 152 -278z" />
    <glyph glyph-name="uni3060" unicode="&#x305f;&#x3099;" 
d="M715 1632q0 -112 -10 -268h719v-133h-730q-36 -385 -170 -761t-272 -544l-119 78q145 206 260.5 552.5t142.5 674.5h-364v133h373q6 129 6 268h164zM1856 1040l-2 -131q-49 2 -90 2q-358 0 -787 -41l-10 132q391 41 773 41q67 0 116 -3zM1915 0q-159 -27 -430 -27
q-229 0 -359.5 19t-205.5 87t-75 166q0 142 114 269l112 -63q-73 -98 -73 -189q-1 -62 67.5 -107t383.5 -45q240 0 458 27zM1905 1471l-115 -47q-66 155 -143 276l106 51q69 -107 152 -280zM1614 1409l-115 -51q-71 162 -145 281l109 49q86 -135 151 -279z" />
    <glyph glyph-name="uni3062" unicode="&#x3061;&#x3099;" 
d="M592 -59l-6 143q190 -21 398 -21q297 -1 488 94t191 275q0 99 -31 155t-127.5 107t-259.5 51q-207 0 -438 -79.5t-358 -202.5l-101 98q201 256 273 624h-504v133h526q25 174 25 292l164 -2q-7 -174 -22 -290h1107v-133h-1130q-43 -250 -181 -474q129 70 310 113t339 43
q248 0 409 -113t161 -314q0 -255 -222 -385.5t-622 -130.5q-221 0 -389 17zM1925 1471l-114 -47q-67 155 -144 277l107 51q69 -107 151 -281zM1635 1410l-115 -51q-72 161 -146 280l109 49q87 -135 152 -278z" />
    <glyph glyph-name="uni3065" unicode="&#x3064;&#x3099;" 
d="M545 16l-25 142q662 18 940.5 174t278.5 444q0 225 -136 353.5t-370 128.5q-150 -1 -489.5 -47t-653.5 -107l-22 147q892 144 1148 144q322 0 504.5 -160.5t182.5 -454.5q0 -356 -297 -549.5t-1061 -214.5zM1983 1471l-115 -47q-67 155 -143 276l106 52q69 -108 152 -281
zM1692 1426l-115 -52q-72 162 -145 281l108 49q87 -135 152 -278z" />
    <glyph glyph-name="uni3067" unicode="&#x3066;&#x3099;" 
d="M1850 1301h-501q-183 -78 -356.5 -285.5t-173.5 -431.5q0 -173 92 -288.5t246 -169t408 -53.5q59 0 121 3l-10 -148h-5q-185 0 -307 6.5t-257 49t-238 129.5t-153 201t-50 258q0 201 122.5 398.5t323.5 334.5h-1003v133h1741v-137zM1893 936l-115 -47q-67 155 -143 276
l106 52q69 -108 152 -281zM1602 875l-115 -52q-72 162 -145 281l108 49q87 -135 152 -278z" />
    <glyph glyph-name="uni3069" unicode="&#x3068;&#x3099;" 
d="M1848 -35q-285 -29 -612 -29q-187 0 -335.5 6t-227 22t-147.5 47.5t-121 80t-78.5 115t-26.5 148.5q0 342 545 574q-27 316 -32 673h166q-1 -43 -1 -91q0 -234 20 -522q194 71 737 226l41 -142q-159 -42 -491.5 -138.5t-498 -183.5t-247.5 -185t-82 -207q0 -100 74 -167
t193.5 -91t453.5 -24q370 0 670 36v-148zM1954 1444l-115 -47q-66 155 -143 276l108 49q81 -133 150 -278zM1663 1382l-114 -51q-72 162 -146 281l109 49q87 -135 151 -279z" />
    <glyph glyph-name="uni3070" unicode="&#x306f;&#x3099;" 
d="M1954 182l-90 -123q-97 88 -346 248v-61q0 -152 -100.5 -227.5t-342.5 -75.5q-162 0 -278.5 79t-116.5 212q0 136 111 220.5t268 84.5t303 -37v586h-706v135h706v372h154v-372h373v-135h-373v-641q233 -94 438 -265zM1368 246v121q-120 51 -306 51q-104 -1 -170.5 -47
t-66.5 -129q0 -81 77 -126.5t183 -45.5q283 0 283 176zM422 -20l-149 -33q-102 329 -102 714q0 420 136 906l154 -27q-137 -452 -137 -862q0 -362 98 -698zM2035 1477l-113 -47q-66 155 -143 276l105 47q76 -119 151 -276zM1788 1413l-110 -51q-72 161 -146 281l105 49
q86 -135 151 -279z" />
    <glyph glyph-name="uni3071" unicode="&#x306f;&#x309a;" 
d="M1940 182l-90 -123q-98 88 -347 248v-61q0 -153 -100.5 -228t-341.5 -75q-163 0 -279.5 79t-115.5 212q0 136 111 220.5t267 84.5q152 0 299 -37v586h-702v135h702v372h158v-372h373v-135h-373v-641q234 -94 439 -265zM1354 246v121q-120 51 -306 51q-104 0 -171 -47
t-66 -129q0 -81 77 -126.5t182 -45.5q284 0 284 176zM408 -20l-150 -33q-102 329 -102 714q0 420 137 906l154 -27q-137 -452 -137 -862q0 -362 98 -698zM1794 1747q92 0 157.5 -60.5t65.5 -149.5q0 -91 -64 -154.5t-155 -63.5q-92 0 -158.5 62t-66.5 151q0 90 64.5 152.5
t156.5 62.5zM1794 1391q61 0 103 42t42 104q0 57 -43.5 98.5t-101.5 42.5q-57 0 -100.5 -43.5t-42.5 -99.5q0 -58 42.5 -101t100.5 -43z" />
    <glyph glyph-name="uni3073" unicode="&#x3072;&#x3099;" 
d="M2022 698l-97 -135q-237 226 -366 455l-15 -14q24 -118 24 -249q0 -835 -744 -835q-292 0 -464 156t-171 431q-1 227 139.5 467.5t349.5 385.5l-6 14q-207 -48 -584 -90l-20 146q540 49 786 104l82 -119q-234 -144 -414 -404t-180 -526q0 -191 137.5 -308.5t344.5 -117.5
q303 0 450.5 176t147.5 564q0 394 -91 618l156 51q140 -451 535 -770zM2024 1467l-115 -47q-67 155 -143 277l104 51q77 -119 154 -281zM1753 1407l-114 -51q-72 162 -146 281l111 51q77 -120 149 -281z" />
    <glyph glyph-name="uni3074" unicode="&#x3072;&#x309a;" 
d="M2022 698l-97 -135q-237 226 -366 455l-15 -14q24 -118 24 -249q0 -835 -744 -835q-292 0 -464 156t-171 431q-1 227 139.5 467.5t349.5 385.5l-6 14q-207 -48 -584 -90l-20 146q540 49 786 104l82 -119q-234 -144 -414 -404t-180 -526q0 -191 137.5 -308.5t344.5 -117.5
q303 0 450.5 176t147.5 564q0 394 -91 618l156 51q140 -451 535 -770zM1790 1747q91 0 157 -60.5t66 -150.5q0 -91 -64 -154t-155 -63q-92 0 -158.5 61.5t-66.5 151.5t65 152.5t156 62.5zM1790 1391q61 0 103 42t42 103q0 58 -43.5 100t-101.5 42q-57 -1 -100 -44t-43 -100
q-1 -58 42 -100.5t101 -42.5z" />
    <glyph glyph-name="uni3076" unicode="&#x3075;&#x3099;" 
d="M1506 1430l-52 -140q-88 30 -358.5 77.5t-640.5 72.5l24 129q478 -38 644.5 -62t382.5 -77zM514 107l54 122q256 -129 393 -129q73 0 112 62.5t39 163.5q0 82 -28 163t-63.5 133.5l-136.5 193.5q-80 111 -80 181q0 144 122 291l123 -53q-99 -122 -99 -216q0 -74 115 -206
t164.5 -257.5t49.5 -260.5q0 -151 -79.5 -250t-212.5 -99q-193 0 -473 161zM1993 141l-158 -45q-52 194 -177.5 432t-252.5 383l121 70q106 -106 248 -350t219 -490zM541 830q-102 -441 -393 -779l-123 82q128 152 228.5 352.5t135.5 378.5zM1995 1446l-115 -47
q-66 155 -143 276l106 52q69 -108 152 -281zM1725 1366l-115 -51q-72 161 -145 280l108 50q87 -135 152 -279z" />
    <glyph glyph-name="uni3077" unicode="&#x3075;&#x309a;" 
d="M1481 1436l-51 -140q-83 28 -350.5 74t-624.5 70l24 129q485 -36 646 -60.5t356 -72.5zM514 107l54 122q256 -129 393 -129q73 0 112 62.5t39 163.5q0 82 -28 163t-63.5 133.5l-136.5 193.5q-80 111 -80 181q0 144 122 291l123 -53q-99 -122 -99 -216q0 -74 115 -206
t164.5 -257.5t49.5 -260.5q0 -151 -79.5 -250t-212.5 -99q-193 0 -473 161zM1993 141l-158 -45q-52 194 -177.5 432t-252.5 383l121 70q106 -106 248 -350t219 -490zM541 830q-102 -441 -393 -779l-123 82q128 152 228.5 352.5t135.5 378.5zM1735 1745q92 -1 157.5 -61.5
t65.5 -149.5q0 -91 -64 -154t-155 -63q-92 0 -158.5 61.5t-66.5 151.5t65 152.5t156 62.5zM1735 1389q61 0 103 42t42 103q0 57 -43.5 99t-101.5 42q-57 0 -100 -43t-43 -100q0 -58 42.5 -100.5t100.5 -42.5z" />
    <glyph glyph-name="uni3079" unicode="&#x3078;&#x3099;" 
d="M2036 207l-111 -133q-166 131 -319 284t-579 627l-151 180q-18 20 -47 20q-36 0 -59 -28q-129 -198 -300.5 -423.5t-334.5 -399.5l-100 110q261 269 531 668q48 79 80.5 124t77.5 69t102 24q99 0 176 -88q177 -215 477 -530t557 -504zM1770 1284l-115 -47
q-67 155 -143 277l106 51q69 -107 152 -281zM1479 1223l-115 -51q-72 161 -145 280l108 49q87 -135 152 -278z" />
    <glyph glyph-name="uni307A" unicode="&#x3078;&#x309a;" 
d="M2036 207l-111 -133q-166 131 -319 284t-579 627l-151 180q-18 20 -47 20q-36 0 -59 -28q-129 -198 -300.5 -423.5t-334.5 -399.5l-100 110q261 269 531 668q48 79 80.5 124t77.5 69t102 24q99 0 176 -88q177 -215 477 -530t557 -504zM1493 1581q92 0 157.5 -61
t65.5 -150q0 -91 -64 -154t-155 -63q-92 0 -158.5 62t-66.5 151q0 90 65 152.5t156 62.5zM1493 1225q61 0 103.5 42t42.5 103q0 58 -44 99.5t-102 41.5q-57 0 -100 -43t-43 -100t43 -100t100 -43z" />
    <glyph glyph-name="uni307C" unicode="&#x307b;&#x3099;" 
d="M2018 1474l-115 -48q-67 156 -144 277l107 51q69 -107 152 -280zM1940 182l-90 -123q-82 75 -347 244v-57q0 -153 -85 -228t-324 -75q-163 0 -277 78.5t-114 212.5q-1 133 107.5 214t264.5 81q147 0 269 -31v352h-674v129h674v373h-631v125h874q-58 119 -108 201l108 49
q87 -135 152 -279l-68 -30v-66h-170v-373h359v-129h-359v-408q268 -122 439 -260zM1354 246v115q-115 49 -276 49q-102 0 -168 -44t-66 -123t74.5 -126t171.5 -47q153 0 208.5 44.5t55.5 131.5zM439 -16l-148 -37q-102 329 -102 714q0 420 137 906l153 -27
q-137 -453 -137 -869q0 -357 97 -687z" />
    <glyph glyph-name="uni307D" unicode="&#x307b;&#x309a;" 
d="M1911 182l-90 -123q-81 74 -346 244v-57q0 -154 -85.5 -228.5t-324.5 -74.5q-163 0 -277 78.5t-114 212.5q0 133 108 213.5t264 81.5q148 0 269 -31v350h-674v129h674v365h-631v125h909q-18 38 -18 78q0 90 68.5 150t165.5 60q91 0 159 -59.5t68 -146.5q0 -91 -68 -152
t-163 -61q-10 0 -28 3q-19 3 -27 3h-277v-365h358v-129h-358v-406q267 -122 438 -260zM1805 1407q62 0 106.5 40t44.5 102q0 55 -46 97t-105 42t-104.5 -42.5t-45.5 -98.5q0 -57 45.5 -98.5t104.5 -41.5zM1325 246v115q-115 49 -276 49q-102 0 -168 -44t-66 -123
q-1 -79 74 -126t172 -47q153 0 208.5 44t55.5 132zM408 -16l-148 -37q-102 329 -102 714q0 420 137 906l154 -27q-137 -453 -137 -869q0 -357 96 -687z" />
    <glyph glyph-name="uni30AC" unicode="&#x30ab;&#x3099;" 
d="M926 1640v-385h876v-73q0 -347 -10.5 -471.5t-30.5 -261.5t-56.5 -237t-84 -154.5t-121 -83t-204.5 -28.5q-143 0 -359 39l4 150q180 -37 333 -37q69 0 134.5 21.5t114.5 107t78 293t29 467.5l-1 127h-715q-31 -457 -232.5 -749.5t-528.5 -465.5l-84 119
q314 191 478.5 451.5t196.5 644.5h-591v141h598v385h176zM1802 1452l-114 -47q-64 151 -144 276l105 49q79 -122 153 -278zM1511 1390l-114 -51q-71 160 -146 281l109 49q85 -131 151 -279z" />
    <glyph glyph-name="uni30AE" unicode="&#x30ad;&#x3099;" 
d="M1974 590l-848 -82l56 -611l-176 -16l-54 610l-886 -86l-15 146l889 86l-44 500l-759 -62l-8 145l755 61l-30 339l170 20l31 -345l725 59l14 -144l-726 -59l45 -497l847 83zM1987 1517l-115 -47q-68 159 -143 277l104 49q81 -125 154 -279zM1696 1456l-115 -51
q-72 163 -145 280l108 49q89 -138 152 -278z" />
    <glyph glyph-name="uni30B0" unicode="&#x30af;&#x3099;" 
d="M942 1614q-29 -95 -83 -205h970l-8 -139q-3 -60 -51 -233q-31 -111 -76.5 -223t-119.5 -232t-178.5 -226t-243.5 -193.5t-321.5 -155.5t-396.5 -110l-59 144q577 112 878.5 413t378.5 809h-852q-118 -194 -292.5 -367.5t-364.5 -283.5l-94 111q265 168 462 428.5
t267 486.5zM2011 1528l-115 -47q-67 156 -143 276l105 49q79 -122 153 -278zM1718 1491l-114 -51q-65 147 -144 274l109 49q88 -137 149 -272z" />
    <glyph glyph-name="uni30B2" unicode="&#x30b1;&#x3099;" 
d="M1485 1083q-30 -519 -306.5 -804t-824.5 -367l-51 139q517 81 748.5 337.5t252.5 694.5h-692q-186 -272 -495 -461l-88 113q253 166 415 402t226 501l180 -22q-44 -191 -149 -385h1318v-148h-534zM1966 1429l-115 -47q-68 159 -143 277l104 49q81 -125 154 -279z
M1675 1368l-114 -51q-69 157 -146 280l109 49q86 -133 151 -278z" />
    <glyph glyph-name="uni30B4" unicode="&#x30b3;&#x3099;" 
d="M2028 1511l-115 -47q-66 154 -144 277l105 49q81 -125 154 -279zM1737 1450l-115 -51q-72 163 -145 280l110 49q83 -128 150 -278zM1595 -4h-1529v143h1357v1165h-1339v138h1511v-1446z" />
    <glyph glyph-name="uni30B6" unicode="&#x30b5;&#x3099;" 
d="M610 526h-174v506h-395v145h395v404h174v-404h768v412h174v-412h398v-145h-398v-242q0 -838 -1157 -876l-33 149q561 20 788.5 213t227.5 510v246h-768v-506zM2036 1485l-113 -43q-69 173 -133 280l102 45q72 -122 144 -282zM1796 1417l-113 -47q-41 99 -133 285l105 45
q75 -128 141 -283z" />
    <glyph glyph-name="uni30B8" unicode="&#x30b7;&#x3099;" 
d="M1217 1315l-84 -142q-249 120 -777 269l68 122q141 -28 374.5 -100t418.5 -149zM1008 819l-82 -145q-311 135 -779 254l62 131q338 -64 799 -240zM1972 903q-232 -408 -670.5 -660t-1010.5 -307l-41 148q340 42 604 132t443 212.5t291 232.5t241 314zM1917 1302l-115 -47
q-68 159 -143 277l104 49q81 -125 154 -279zM1626 1241l-115 -51q-72 163 -145 280l109 49q86 -133 151 -278z" />
    <glyph glyph-name="uni30BA" unicode="&#x30b9;&#x3099;" 
d="M2030 1524l-115 -48q-68 159 -143 277l104 49q83 -128 154 -278zM1757 1462l-115 -51q-72 163 -145 280l109 50q85 -131 151 -279zM1927 20l-141 -110q-325 334 -733 678q-500 -482 -973 -670l-66 131q396 160 802 531t564 790h-1140v139h1314l37 -35
q-43 -182 -162 -390.5t-276 -385.5q220 -172 774 -678z" />
    <glyph glyph-name="uni30BC" unicode="&#x30bb;&#x3099;" 
d="M1944 1245q-240 -425 -594 -698l-109 100q279 224 465 532l-1018 -152v-628q0 -141 70.5 -210.5t265.5 -69.5h852v-148h-895q-463 0 -463 416v615l-426 -64l-18 147l452 64v465h174v-441l1141 160zM1987 1503l-115 -47q-67 156 -143 276l104 50q81 -125 154 -279z
M1696 1442l-115 -52q-73 166 -145 281l108 49q89 -138 152 -278z" />
    <glyph glyph-name="uni30BE" unicode="&#x30bd;&#x3099;" 
d="M1995 1515l-115 -47q-68 159 -143 277l104 47q85 -131 154 -277zM1706 1476l-115 -51q-73 166 -145 281l108 49q88 -136 152 -279zM684 837l-164 -71q-128 304 -379 696l144 74q178 -262 399 -699zM1794 1405q-57 -627 -400 -1009.5t-1027 -491.5l-50 141
q659 112 963 478t338 894z" />
    <glyph glyph-name="uni30C0" unicode="&#x30bf;&#x3099;" 
d="M926 1618q-30 -96 -78 -195h979q-8 -145 -18 -205q-33 -190 -97.5 -354t-169.5 -313.5t-266 -278.5t-372.5 -221.5t-471.5 -146.5l-47 137q586 112 919 473q-302 164 -718 309l78 119q302 -93 743 -300q192 279 235 648h-866q-126 -218 -307 -396.5t-358 -279.5l-88 109
q269 172 463.5 427.5t269.5 489.5zM2023 1515l-114 -47q-66 154 -144 277l105 49q77 -119 153 -279zM1729 1507l-115 -51q-62 140 -144 272l109 49q95 -146 150 -270z" />
    <glyph glyph-name="uni30C2" unicode="&#x30c1;&#x3099;" 
d="M1165 766q-2 -203 -37 -320.5t-140.5 -235.5t-262 -194t-346.5 -112l-62 133q162 31 292 93t225.5 159t127 200.5t31.5 276.5h-911v145h911v405q-266 -31 -704 -48l-25 139q387 8 773.5 60.5t613.5 135.5l100 -131q-185 -70 -586 -132v-429h791v-145h-791zM1970 1126
l-115 -47q-68 159 -143 277l105 49q77 -119 153 -279zM1679 1065l-114 -51q-69 157 -146 280l109 49q86 -133 151 -278z" />
    <glyph glyph-name="uni30C5" unicode="&#x30c4;&#x3099;" 
d="M1116 840l-164 -60q-94 320 -288 684l143 64q73 -125 130.5 -243t178.5 -445zM1804 1378q-91 -695 -435.5 -1043.5t-993.5 -443.5l-49 148q615 86 921 415.5t383 940.5zM524 727l-168 -64q-93 321 -288 686l147 64q111 -191 162.5 -307.5t146.5 -378.5zM2007 1515
l-115 -47q-68 159 -143 277l104 47q85 -131 154 -277zM1712 1476l-115 -51q-73 166 -145 281l109 49q85 -131 151 -279z" />
    <glyph glyph-name="uni30C7" unicode="&#x30c6;&#x3099;" 
d="M1532 1372h-1337v139h1337v-139zM1153 758q0 -255 -83 -412.5t-263.5 -267.5t-460.5 -168l-53 141q314 67 498 221.5t184 448.5v104h-897v146h1841v-146h-766v-67zM2023 1507l-114 -47q-66 154 -144 277l105 49q77 -119 153 -279zM1749 1446l-115 -51q-72 163 -145 280
l108 49q89 -138 152 -278z" />
    <glyph glyph-name="uni30C9" unicode="&#x30c8;&#x3099;" 
d="M1903 622l-105 -139q-208 139 -497 273t-515 202v-1061h-178v1751h180v-536q593 -178 1115 -490zM1810 1319l-114 -47q-64 151 -144 276l105 49q79 -122 153 -278zM1520 1257l-115 -51q-73 166 -145 281l108 49q88 -136 152 -279z" />
    <glyph glyph-name="uni30D0" unicode="&#x30cf;&#x3099;" 
d="M1970 90l-129 -113q-168 172 -303.5 444t-188.5 607t-53 530h166v-16q0 -430 120 -804.5t388 -647.5zM766 1546q-15 -589 -183 -957.5t-477 -629.5l-100 108q115 103 202 211t152 232.5t117.5 256.5t82 326.5t36.5 452.5h170zM2019 1462l-114 -47q-64 151 -144 276
l105 50q77 -119 153 -279zM1735 1401l-115 -52q-73 166 -145 281l108 49q89 -138 152 -278z" />
    <glyph glyph-name="uni30D1" unicode="&#x30cf;&#x309a;" 
d="M1966 90l-129 -113q-161 165 -296 429t-192 596t-57 556h166v-16q0 -430 120 -804.5t388 -647.5zM766 1546q-15 -589 -183 -957.5t-477 -629.5l-100 108q115 103 202 211t152 232.5t117.5 256.5t82 326.5t36.5 452.5h170zM1532 1525q0 90 66.5 151t154.5 61
q98 0 160.5 -63.5t62.5 -147.5q0 -96 -67 -157t-152 -61q-98 0 -161.5 64.5t-63.5 152.5zM1753 1380q59 0 102.5 41.5t43.5 99.5q0 60 -43 103t-103 43q-56 0 -99.5 -42.5t-43.5 -100.5t43 -101t100 -43z" />
    <glyph glyph-name="uni30D3" unicode="&#x30d2;&#x3099;" 
d="M1862 -33h-1028q-114 0 -201 20.5t-146.5 62t-92 108t-32.5 217.5v1249h170v-623q845 156 1190 318l84 -152q-167 -74 -571.5 -169.5t-702.5 -135.5v-473q0 -109 23.5 -162t105 -78.5t218.5 -25.5h983v-156zM1872 1495l-115 -47q-67 156 -143 276l104 49
q83 -128 154 -278zM1581 1433l-115 -51q-73 166 -145 281l109 49q85 -131 151 -279z" />
    <glyph glyph-name="uni30D4" unicode="&#x30d2;&#x309a;" 
d="M1862 -33h-1028q-114 0 -201 20.5t-146.5 62t-92 108t-32.5 217.5v1249h170v-623q849 157 1190 316l84 -150q-207 -89 -581 -176.5t-693 -129.5v-472q0 -109 23.5 -162t105 -78.5t218.5 -25.5h983v-156zM1389 1582q0 90 66.5 151t154.5 61q98 0 160.5 -63.5t62.5 -147.5
q0 -96 -67 -156.5t-152 -60.5q-98 0 -161.5 64.5t-63.5 151.5zM1755 1583q0 57 -43.5 99t-101.5 42q-56 0 -100 -42.5t-44 -100.5t43.5 -100.5t100.5 -42.5q59 0 102 41t43 104z" />
    <glyph glyph-name="uni30D6" unicode="&#x30d5;&#x3099;" 
d="M2028 1515l-115 -47q-66 154 -144 277l105 49q81 -125 154 -279zM1710 1478q-1 -192 -48 -427.5t-144.5 -425.5t-290 -345t-444 -246t-560.5 -122l-41 151q525 51 915 327.5t433 948.5h-1370v148h1442q-67 143 -123 233l108 49q89 -138 152 -278z" />
    <glyph glyph-name="uni30D7" unicode="&#x30d5;&#x309a;" 
d="M1678 1389q-37 -455 -181.5 -745t-478.5 -486t-825 -246l-41 151q523 50 913.5 326t433.5 950h-1370v148h1453q-20 41 -21 93q0 88 64.5 149t160.5 63q90 0 153.5 -61t65.5 -154q0 -89 -64 -150t-155 -63q-60 0 -108 25zM1782 1435q58 0 101.5 41t43.5 100
q0 60 -42.5 103t-102.5 43q-58 0 -101 -42.5t-43 -100.5t42.5 -101t101.5 -43z" />
    <glyph glyph-name="uni30D9" unicode="&#x30d8;&#x3099;" 
d="M2036 215l-101 -150l-589.5 605t-404.5 396t-105 89.5t-24 5.5q-9 0 -26 -7t-66 -68.5l-320 -416.5l-275 -358l-115 113q71 81 184 231l422 561q66 85 183 85q51 0 104.5 -19t131.5 -92l302 -286zM1851 1233l-114 -47q-64 151 -144 276l105 49q79 -122 153 -278z
M1561 1171l-115 -51q-71 160 -146 281l109 49q88 -136 152 -279z" />
    <glyph glyph-name="uni30DA" unicode="&#x30d8;&#x309a;" 
d="M2036 215l-101 -150l-589.5 605t-404.5 396t-105 89.5t-24 5.5q-9 0 -26 -7t-66 -68.5l-320 -416.5l-275 -358l-115 113q71 81 184 231l422 561q66 85 183 85q51 0 104.5 -19t131.5 -92l302 -286zM1360 1313v3q0 90 66.5 151t154.5 61q98 0 160.5 -63.5t62.5 -147.5
q0 -96 -67 -156.5t-152 -60.5q-98 0 -161.5 64.5t-63.5 148.5zM1581 1171q59 0 102.5 41.5t43.5 99.5q0 60 -43 103t-103 43q-56 0 -99.5 -42.5t-43.5 -100.5t43 -101t100 -43z" />
    <glyph glyph-name="uni30DC" unicode="&#x30db;&#x3099;" 
d="M1114 -88h-176v1229h-825v143h825v336h176v-336h805v-143h-805v-1229zM2030 155l-136 -108q-162 152 -302 403t-199 451l163 35q138 -426 474 -781zM664 895q-155 -522 -529 -846l-121 96q195 184 315.5 404.5t157.5 376.5zM1958 1478l-115 -47q-68 159 -143 277l104 49
q81 -125 154 -279zM1667 1417l-115 -51q-72 163 -145 280l109 50q85 -131 151 -279z" />
    <glyph glyph-name="uni30DD" unicode="&#x30db;&#x309a;" 
d="M1114 -88h-176v1229h-825v143h825v336h176v-336h805v-143h-805v-1229zM2030 155l-136 -108q-162 152 -302 403t-199 451l163 35q138 -426 474 -781zM664 895q-155 -522 -529 -846l-121 96q195 184 315.5 404.5t157.5 376.5zM1491 1567v3q0 90 66.5 151t154.5 61
q98 0 160.5 -63.5t62.5 -147.5q0 -96 -67 -156.5t-152 -60.5q-98 0 -161.5 64.5t-63.5 148.5zM1858 1567v4q0 57 -44 99t-102 42q-56 0 -99.5 -42.5t-43.5 -100.5t43 -101t100 -43q59 0 102.5 41.5t43.5 100.5z" />
    <glyph glyph-name="uni30F4" unicode="&#x30a6;&#x3099;" 
d="M1997 1515l-115 -47q-68 159 -143 277l104 49q81 -125 154 -279zM1706 1470l-115 -51q-73 166 -145 281l108 49q88 -136 152 -279zM1853 1276q0 -270 -32.5 -449.5t-95.5 -310t-159.5 -231.5t-246 -180.5t-348.5 -130t-445 -72.5l-41 147q259 26 434 73t302.5 118
t186 128t121.5 145.5t102.5 268.5t39.5 381v70h-1306v-553h-175v688h738v262h182v-262h743v-92z" />
    <glyph glyph-name="uni3094" unicode="&#x3046;&#x3099;" 
d="M1714 1400l-115 -52q-71 162 -145 281l109 49q87 -135 151 -278zM1965 1461l-115 -47q-66 155 -143 276l106 52q69 -108 152 -281zM1459 1462l-35 -141q-172 36 -566 67q-205 16 -567 25l6 135q279 0 582 -22q178 -14 580 -64zM1678 690q0 -413 -426 -612
q-308 -143 -789 -158l-28 131q449 31 694 139q237 105 314 224.5t77 283.5q0 153 -131 236q-112 70 -274 70q-200 0 -473 -45l-468 -87l-26 144l482 79q281 42 487 42q238 0 387 -102q174 -118 174 -345z" />
    <glyph glyph-name="uni30F7" unicode="&#x30ef;&#x3099;" 
d="M1749 1162q0 -317 -50 -513q-66 -265 -239 -433q-287 -279 -938 -338l-37 150q83 0 209 22q277 48 435 129q181 93 309 275q141 201 141 637v184h-1196v-498h-166v633h1532v-248zM2028 1506l-115 -47q-68 160 -139 271l104 49q77 -119 150 -273zM1737 1461l-115 -47
q-67 150 -141 270l108 50q83 -129 148 -273z" />
    <glyph glyph-name="uni30F8" unicode="&#x30f0;&#x3099;" 
d="M643 429h651v754h-651v-754zM1872 288h-414v-414h-164v414h-1179v141h360v754h-266v137h1085v252h164v-252h324v-137h-324v-754h414v-141zM2019 1465l-114 -47q-66 154 -144 277l105 49q77 -120 153 -279zM1739 1420l-115 -51q-74 166 -145 281l108 49q88 -136 152 -279z
" />
    <glyph glyph-name="uni30F9" unicode="&#x30f1;&#x3099;" 
d="M1737 1439l-115 -51q-72 162 -145 280l108 49q89 -138 152 -278zM2028 1484l-115 -47q-65 151 -144 276l105 49q83 -128 154 -278zM961 105v947h169v-947h850v-145h-1851v145h832zM1894 1299q-123 -201 -322 -381q-175 -158 -329 -233l-80 109q111 64 253 189
q162 141 243 261h-1337v139h1501z" />
    <glyph glyph-name="uni30FA" unicode="&#x30f2;&#x3099;" 
d="M1736 1472l-114 -47q-65 152 -140 270l105 49q75 -116 149 -272zM2023 1496l-114 -47q-65 152 -140 270l105 49q75 -116 149 -272zM1722 1424v-137q0 -246 -65 -492q-76 -287 -213 -442q-178 -201 -474 -329q-291 -125 -640 -154l-37 143q430 38 725 207q327 187 438 481
h-1151v140h1194q48 190 51 444h-1292v139h1464z" />
    <glyph glyph-name="uni304B_uni309A.liga" unicode="&#x304b;&#x309a;" 
d="M683 1233h384q150 0 231 -113q73 -100 73 -255q0 -455 -105 -718q-86 -215 -279 -215q-124 0 -348 119l49 127q50 -24 140 -54q106 -36 143 -36q92 0 143 113q99 217 99 596q0 147 -25 207q-42 98 -170 98h-348q-49 -319 -100 -484q-129 -415 -381 -696l-113 82
q170 206 301 524q87 212 131 553h-391v133h407q13 182 13 404h157q0 -247 -11 -385zM1875 609l-156 -41q-137 501 -397 780l117 80q140 -142 266 -383q124 -234 170 -436zM1513 1530q0 90 65.5 152.5t156.5 62.5t156 -59q67 -62 67 -152t-64 -153.5t-155 -63.5t-157 60
q-69 63 -69 153zM1591 1532q0 -57 43 -100.5t101 -43.5q61 0 103 42.5t42 103.5q0 57 -43.5 99t-101.5 42q-57 0 -100.5 -43t-43.5 -100z" />
    <glyph glyph-name="uni304D_uni309A.liga" unicode="&#x304d;&#x309a;" 
d="M1616 491l-111 -110q-238 161 -637 161q-247 0 -368 -66q-117 -63 -117 -189q0 -222 577 -222q385 0 642 41l4 -143q-223 -37 -596 -37q-316 0 -487 47q-300 83 -300 314q0 213 218 312q162 73 405 73q306 0 534 -86q-99 129 -184 288h-1036v129h973q-54 125 -90 240
h-826v129h785q-33 127 -50 250l160 14q29 -180 51 -264h425q-75 63 -75 158q0 90 65.5 152.5t156.5 62.5t156 -59q67 -62 67 -152t-63.5 -153t-153.5 -64v-74h-542q26 -84 90 -240h548v-129h-484q84 -153 263 -383zM1591 1532q0 -57 43 -100.5t101 -43.5q61 0 103 42.5
t42 103.5q0 57 -43.5 99t-101.5 42q-57 0 -100.5 -43t-43.5 -100z" />
    <glyph glyph-name="uni304F_uni309A.liga" unicode="&#x304f;&#x309a;" 
d="M1498 1225q0 -57 43 -100t101 -43q61 0 103 42t42 103q0 57 -43.5 99t-101.5 42q-57 0 -100.5 -43t-43.5 -100zM1421 1223q0 90 65 152.5t156 62.5t156 -59q67 -62 67 -152t-64 -153.5t-155 -63.5t-158 61.5t-67 151.5zM1594 12l-125 -123q-58 56 -205 183
q-196 168 -478 355l-317 208q-123 87 -123 179q0 93 123 181l343 224q295 199 544 423l123 -102q-275 -230 -606 -451l-228 -145l-84 -52q-55 -40 -55 -74q0 -32 55 -72l82 -51l275 -179q417 -274 676 -504z" />
    <glyph glyph-name="uni3051_uni309A.liga" unicode="&#x3051;&#x309a;" 
d="M1591 1532q0 -58 43 -101t101 -43q61 0 103 42.5t42 103.5q0 57 -43.5 99t-101.5 42q-57 0 -100.5 -43t-43.5 -100zM1004 -88l-64 116q226 86 326 250q94 154 94 406v364h-649v136h649v383h156q14 77 76 127.5t143 50.5q91 0 156 -59q67 -62 67 -152t-64 -153.5
t-155 -63.5q-78 0 -141 47t-80 121v-301h403v-136h-403v-381q0 -586 -514 -755zM696 514q-114 -178 -159 -258q-94 -168 -119 -273l-123 9q-121 336 -121 716q0 358 115 836l157 -29q-121 -480 -121 -800q0 -257 48 -486q123 208 215 346z" />
    <glyph glyph-name="uni3053_uni309A.liga" unicode="&#x3053;&#x309a;" 
d="M1591 1532q0 -58 43 -101t101 -43q61 0 103 42.5t42 103.5q0 57 -43.5 99t-101.5 42q-57 0 -100.5 -43t-43.5 -100zM1513 1530q0 90 65.5 152.5t156.5 62.5t156 -59q67 -62 67 -152t-64 -153.5t-155 -63.5t-157 60q-69 63 -69 153zM1592 1262l-513 -248l-71 100
q100 55 305 158l-4 21q-349 -7 -1045 -33l-8 139q136 7 463 13q512 9 544 9q147 0 270 -5zM1735 -10q-307 -47 -833 -47q-326 0 -500 57q-268 88 -268 316q0 218 206 397l108 -82q-161 -158 -161 -305q0 -142 194 -197q152 -42 415 -42q466 0 814 51z" />
    <glyph glyph-name="uni30AB_uni309A.liga" unicode="&#x30ab;&#x309a;" 
d="M1567 1535q0 -57 43 -100t101 -43q61 0 103 42t42 103q0 57 -43.5 99t-101.5 42q-57 0 -100.5 -43t-43.5 -100zM1490 1533q0 90 65 152.5t156 62.5t156 -59q67 -62 67 -152t-64 -153.5t-155 -63.5t-158 61.5t-67 151.5zM925 1640v-381h876v-367q0 -479 -120 -737
q-58 -125 -166 -173q-83 -38 -224 -38q-60 0 -356 39l4 152q180 -37 350 -37q97 0 152 42q34 27 83 106q43 69 73 249q30 174 30 335v286h-714q-21 -272 -84 -451q-171 -489 -678 -761l-84 114q407 248 561 600q91 208 114 498h-591v143h598v381h176z" />
    <glyph glyph-name="uni30AD_uni309A.liga" unicode="&#x30ad;&#x309a;" 
d="M1591 1532q0 -58 43 -101t101 -43q61 0 103 42.5t42 103.5q0 57 -43.5 99t-101.5 42q-57 0 -100.5 -43t-43.5 -100zM1974 590l-848 -82l56 -611l-176 -16l-54 610l-886 -86l-15 146l889 86l-44 500l-759 -62l-8 145l755 61l-30 339l170 20l31 -345l578 47
q-120 60 -120 188q0 90 65.5 152.5t156.5 62.5t156 -59q67 -62 67 -152q0 -78 -49.5 -137.5t-125.5 -75.5l11 -111l-726 -59l45 -497l847 83z" />
    <glyph glyph-name="uni30AF_uni309A.liga" unicode="&#x30af;&#x309a;" 
d="M944 1614q-29 -95 -83 -205h759q-67 62 -67 151q0 90 65.5 152.5t156.5 62.5t156 -59q67 -62 67 -152q0 -79 -50 -138.5t-126 -74.5q-25 -337 -169 -630q-176 -357 -490 -553q-302 -188 -727 -271l-59 144q552 107 860 397q163 154 271 393q95 209 126 432h-852
q-101 -167 -241 -315q-197 -209 -416 -336l-94 111q252 173 439 399q208 251 290 516zM1631 1562q0 -57 43 -100.5t101 -43.5q61 0 103 42.5t42 103.5q0 57 -43.5 99t-101.5 42q-57 0 -100.5 -43t-43.5 -100z" />
    <glyph glyph-name="uni30B1_uni309A.liga" unicode="&#x30b1;&#x309a;" 
d="M1485 1083q-32 -509 -291 -788q-279 -299 -840 -383l-51 139q494 78 725 313q253 257 276 719h-692q-186 -272 -495 -461l-88 113q240 158 397 377q176 246 244 526l180 -22q-44 -191 -149 -385h1318v-148h-534zM1473 1530q0 90 65.5 152.5t156.5 62.5t156 -59
q67 -62 67 -152t-64 -153.5t-155 -63.5t-157 60q-69 63 -69 153zM1551 1532q0 -58 43 -101t101 -43q61 0 103 42.5t42 103.5q0 57 -43.5 99t-101.5 42q-57 0 -100.5 -43t-43.5 -100z" />
    <glyph glyph-name="uni30B3_uni309A.liga" unicode="&#x30b3;&#x309a;" 
d="M1595 -4h-1529v143h1357v1165h-1339v138h1490q-31 49 -31 108q0 90 65.5 152.5t156.5 62.5t156 -59q67 -62 67 -152t-64 -153.5t-155 -63.5q-106 0 -174 77v-1418zM1621 1552q0 -57 43 -100.5t101 -43.5q61 0 103 42.5t42 103.5q0 57 -43.5 99t-101.5 42
q-57 0 -100.5 -43t-43.5 -100z" />
    <glyph glyph-name="uni30BB_uni309A.liga" unicode="&#x30bb;&#x309a;" 
d="M1581 1562q0 -57 43 -100.5t101 -43.5q61 0 103 42.5t42 103.5q0 57 -43.5 99t-101.5 42q-57 0 -100.5 -43t-43.5 -100zM1503 1560q0 90 65.5 152.5t156.5 62.5t156 -59q67 -62 67 -152t-64 -153.5t-155 -63.5t-157 60q-69 63 -69 153zM1944 1245q-240 -425 -594 -698
l-109 100q279 223 465 532l-1018 -152v-628q0 -169 100 -233q73 -47 236 -47h852v-148h-895q-463 0 -463 416v615l-426 -64l-18 147l452 64v465h174v-441l1141 160z" />
    <glyph glyph-name="uni30C4_uni309A.liga" unicode="&#x30c4;&#x309a;" 
d="M1631 1552q0 -57 43 -100.5t101 -43.5q61 0 103 42.5t42 103.5q0 57 -43.5 99t-101.5 42q-57 0 -100.5 -43t-43.5 -100zM1799 1338q-42 -301 -124 -505q-96 -240 -202 -379q-346 -453 -1098 -563l-49 148q606 85 913 407q229 240 340 670q35 136 51 275q-77 63 -77 159
q0 90 65.5 152.5t156.5 62.5t156 -59q67 -62 67 -152q0 -85 -57.5 -147t-141.5 -69zM524 727l-168 -64q-93 320 -288 686l147 64q110 -188 164 -311q47 -106 145 -375zM1116 840l-164 -60q-94 320 -288 684l143 64q91 -157 162 -312q34 -75 147 -376z" />
    <glyph glyph-name="uni30C8_uni309A.liga" unicode="&#x30c8;&#x309a;" 
d="M1903 622l-105 -139q-218 145 -526 286q-273 124 -486 189v-1061h-178v1751h180v-536q593 -178 1115 -490zM1302 1419q0 90 65.5 152.5t155.5 62.5q91 0 156 -59q67 -62 67 -152t-64 -153.5t-155 -63.5q-90 0 -157.5 61.5t-67.5 151.5zM1380 1421q0 -58 43 -101t100 -43
q61 0 103 42.5t42 103.5q0 57 -43.5 99t-101.5 42q-56 0 -99.5 -43t-43.5 -100z" />
    <glyph glyph-name="uni31F7_uni309A.liga" unicode="&#x31f7;&#x309a;" 
d="M1795 1276q0 45 -35 78.5t-81 33.5q-45 0 -79 -34t-34 -79t34 -79.5t79 -34.5q48 0 82 33.5t34 81.5zM1875 1276q0 -79 -56 -134.5t-136 -55.5q-45 0 -84 17q-34 -495 -290 -769q-332 -356 -985 -422l-38 142q317 31 555 142q204 95 321 209q241 235 271 660h-1164v139
h1230q-13 31 -13 69q0 79 57 133.5t136 54.5q80 0 138 -53t58 -132z" />
    <glyph glyph-name="uni00A0" unicode="&#xa0;" horiz-adv-x="696" 
 />
    <glyph glyph-name="uni00A0" unicode=" " horiz-adv-x="696" 
 />
    <glyph glyph-name="exclam" unicode="!" horiz-adv-x="776" 
d="M494 1507l-27 -1097h-156l-29 1097h212zM490 0h-204v211h204v-211z" />
    <glyph glyph-name="quotedbl" unicode="&#x22;" horiz-adv-x="920" 
d="M756 1574l-43 -585h-120l-43 585h206zM370 1574l-43 -585h-120l-43 585h206z" />
    <glyph glyph-name="numbersign" unicode="#" horiz-adv-x="1646" 
d="M1468 935h-339l-91 -364h313v-123h-344l-111 -448h-117l112 448h-283l-111 -448h-117l112 448h-310v123h340l91 364h-314v123h345l112 449h117l-112 -449h282l112 449h117l-112 -449h308v-123zM1016 937h-287l-93 -368h287z" />
    <glyph glyph-name="dollar" unicode="$" horiz-adv-x="1272" 
d="M701 0v-366h-106v362q-260 1 -455 91v188h11q177 -133 444 -143v459q-271 49 -359.5 138t-88.5 221q0 153 120 254.5t328 117.5v254h106v-252q219 -6 391 -76v-186h-11q-181 117 -380 129v-457q188 -36 272 -77t128 -110t44 -164q0 -153 -119 -257t-325 -126zM595 749
v441q-125 -10 -198 -66.5t-73 -147.5q0 -95 58 -144t213 -83zM701 576v-443q267 26 267 224q0 91 -58 140t-209 79z" />
    <glyph glyph-name="percent" unicode="%" horiz-adv-x="2114" 
d="M502 642q-368 0 -368 447q0 448 368 448q367 0 367 -447q0 -448 -367 -448zM502 1416q-106 0 -154 -73.5t-48 -253.5q0 -181 47.5 -253.5t154.5 -72.5q106 0 153.5 72.5t47.5 254.5q0 178 -47.5 252t-153.5 74zM1561 1518l-847 -1518h-154l847 1518h154zM1613 -29
q-368 0 -368 447q0 448 368 448q367 0 367 -447q0 -448 -367 -448zM1613 745q-106 0 -154 -73.5t-48 -253.5q0 -181 47.5 -253.5t154.5 -72.5q106 0 153.5 72.5t47.5 254.5q0 178 -47.5 252t-153.5 74z" />
    <glyph glyph-name="ampersand" unicode="&#x26;" horiz-adv-x="1488" 
d="M1555 0h-234l-233 230q-204 -261 -490 -261q-209 0 -346 123.5t-137 318.5q0 275 288 443q-126 85 -171 159.5t-45 176.5q0 144 115 246t299 102q172 0 279.5 -87.5t107.5 -223.5q0 -269 -307 -376l391 -378q22 62 29 135t7 307h183v-92q0 -246 -113 -453zM804 1208
q0 100 -60 158.5t-153 58.5q-96 0 -158 -65t-62 -160q0 -87 53 -151.5t169 -131.5q211 78 211 291zM998 317l-491 476q-89 -42 -144 -130.5t-55 -201.5q0 -154 92 -247.5t249 -93.5q216 0 349 197z" />
    <glyph glyph-name="quotesingle" unicode="'" horiz-adv-x="530" 
d="M370 1574l-43 -585h-124l-43 585h210z" />
    <glyph glyph-name="parenleft" unicode="(" horiz-adv-x="900" 
d="M767 -417h-213q-204 237 -295.5 476t-91.5 520q0 543 387 995h213v-10q-199 -175 -318.5 -436.5t-119.5 -548.5q0 -288 119 -548.5t319 -437.5v-10z" />
    <glyph glyph-name="parenright" unicode=")" horiz-adv-x="900" 
d="M346 -417h-213v10q201 179 319.5 438.5t118.5 547.5q0 287 -119 547.5t-319 437.5v10h213q387 -452 387 -995q0 -280 -90.5 -518t-296.5 -478z" />
    <glyph glyph-name="asterisk" unicode="*" horiz-adv-x="1272" 
d="M1074 1289l-336 -184l335 -186l-58 -102l-327 198l7 -379h-117l7 379l-327 -198l-58 102l335 186l-336 184l59 101l327 -195l-7 379h117l-7 -379l327 195z" />
    <glyph glyph-name="plus" unicode="+" horiz-adv-x="1646" 
d="M1451 585h-551v-551h-154v551h-551v148h551v551h154v-551h551v-148z" />
    <glyph glyph-name="comma" unicode="," horiz-adv-x="715" 
d="M554 273l-282 -643h-134l176 643h240z" />
    <glyph glyph-name="figuredash" unicode="&#x2012;" horiz-adv-x="900" 
d="M762 575h-624v168h624v-168z" />
    <glyph glyph-name="figuredash" unicode="&#x2011;" horiz-adv-x="900" 
d="M762 575h-624v168h624v-168z" />
    <glyph glyph-name="figuredash" unicode="&#x2010;" horiz-adv-x="900" 
d="M762 575h-624v168h624v-168z" />
    <glyph glyph-name="figuredash" unicode="-" horiz-adv-x="900" 
d="M762 575h-624v168h624v-168z" />
    <glyph glyph-name="period" unicode="." horiz-adv-x="715" 
d="M471 0h-227v273h227v-273z" />
    <glyph glyph-name="slash" unicode="/" horiz-adv-x="920" 
d="M856 1574l-724 -1878h-161l721 1878h164z" />
    <glyph glyph-name="zero" unicode="0" horiz-adv-x="1272" 
d="M637 -31q-266 0 -391 190t-125 593t125.5 594t390.5 191q263 0 389 -191.5t126 -591.5q0 -404 -125 -594.5t-390 -190.5zM637 1384q-171 0 -248 -135.5t-77 -496.5q0 -358 77 -494t248 -136t247.5 136t76.5 496q0 353 -76 491.5t-248 138.5z" />
    <glyph glyph-name="one" unicode="1" horiz-adv-x="1272" 
d="M1068 0h-802v138h314v1036h-314v122q184 1 263 52.5t89 163.5h142v-1374h308v-138z" />
    <glyph glyph-name="two" unicode="2" horiz-adv-x="1272" 
d="M1154 0h-1008v195l359.5 321t296.5 322t97 278q0 123 -81.5 192t-221.5 69q-205 0 -403 -130h-10v195q202 96 418 96q228 0 359 -110.5t131 -301.5q0 -102 -33.5 -195t-104.5 -181t-170 -187t-455 -402h826v-161z" />
    <glyph glyph-name="three" unicode="3" horiz-adv-x="1272" 
d="M152 63v201h16q203 -134 420 -134q160 0 256.5 87t96.5 242q0 144 -84 212t-272 68h-88v154h68q162 0 254 69t92 194q0 106 -80.5 163.5t-221.5 57.5q-203 0 -403 -131h-11v197q202 95 419 95q233 0 360.5 -97.5t127.5 -263.5q0 -122 -85 -218t-213 -122v-16
q329 -59 329 -379q0 -207 -151 -340t-389 -133q-227 0 -441 94z" />
    <glyph glyph-name="four" unicode="4" horiz-adv-x="1272" 
d="M1188 434h-221v-434h-180v434h-725v210l733 863h172v-925h221v-148zM787 582v705l-599 -705h599z" />
    <glyph glyph-name="five" unicode="5" horiz-adv-x="1272" 
d="M172 57v200h16q195 -127 406 -127q162 0 259.5 92.5t97.5 255.5q0 296 -406 296q-116 0 -308 -40v773h895v-162h-715v-427q132 13 178 13q269 0 408 -116t139 -338q0 -224 -150.5 -366t-393.5 -142q-236 0 -426 88z" />
    <glyph glyph-name="six" unicode="6" horiz-adv-x="1272" 
d="M1031 1511v-177h-12q-84 41 -196 41q-221 0 -353 -140.5t-154 -390.5q189 113 368 113q219 0 355.5 -121.5t136.5 -348.5q0 -226 -148 -372t-368 -146q-255 0 -396.5 177.5t-141.5 514.5q0 415 189.5 644.5t541.5 229.5q106 0 178 -24zM316 716q-4 -82 -4 -99
q0 -238 93 -367.5t257 -129.5q151 0 237 94.5t86 264.5q0 141 -81 233t-269 92q-163 0 -319 -88z" />
    <glyph glyph-name="seven" unicode="7" horiz-adv-x="1272" 
d="M1158 1298l-676 -1298h-201l719 1345h-861v162h1019v-209z" />
    <glyph glyph-name="eight" unicode="8" horiz-adv-x="1272" 
d="M386 799v12q-239 130 -239 337q0 171 138 282t351 111q221 0 355 -105t134 -275q0 -110 -66.5 -206.5t-184.5 -150.5v-13q291 -125 291 -374q0 -194 -151 -322.5t-378 -128.5q-241 0 -385 123.5t-144 323.5q0 261 279 386zM940 1160q0 108 -83 177t-222 69
q-132 0 -215.5 -64.5t-83.5 -169.5q0 -116 104 -191t316 -140q184 119 184 319zM508 763q-211 -119 -211 -336q0 -145 96 -234.5t245 -89.5q153 0 243 78.5t90 215.5q0 93 -41 149.5t-119.5 95.5t-302.5 121z" />
    <glyph glyph-name="nine" unicode="9" horiz-adv-x="1272" 
d="M243 -6v177h12q84 -40 196 -40q462 0 508 535q-200 -120 -368 -120q-228 0 -360.5 126.5t-132.5 346.5q0 226 148 372t368 146q251 0 394.5 -172.5t143.5 -519.5q0 -416 -189 -645t-542 -229q-104 0 -178 23zM959 792l3 89q0 244 -90 374.5t-260 130.5q-149 0 -236 -95.5
t-87 -263.5q0 -144 81 -236.5t268 -92.5q153 0 321 94z" />
    <glyph glyph-name="colon" unicode=":" horiz-adv-x="880" 
d="M554 857h-227v273h227v-273zM554 0h-227v273h227v-273z" />
    <glyph glyph-name="semicolon" unicode=";" horiz-adv-x="880" 
d="M554 857h-227v273h227v-273zM627 273l-282 -643h-134l176 643h240z" />
    <glyph glyph-name="less" unicode="&#x3c;" horiz-adv-x="1646" 
d="M1393 90l-1154 513v112l1154 513v-167l-927 -402l927 -402v-167z" />
    <glyph glyph-name="equal" unicode="=" horiz-adv-x="1646" 
d="M1416 795h-1186v148h1186v-148zM1416 375h-1186v148h1186v-148z" />
    <glyph glyph-name="greater" unicode="&#x3e;" horiz-adv-x="1646" 
d="M1407 603l-1154 -513v167l927 402l-927 402v167l1154 -513v-112z" />
    <glyph glyph-name="question" unicode="?" horiz-adv-x="1087" 
d="M573 634v-234h-167v304q260 144 326 238t66 197q0 115 -75.5 177.5t-210.5 62.5q-168 0 -356 -104h-11v191q197 72 381 72q213 0 338.5 -104.5t125.5 -279.5q0 -135 -74.5 -249t-342.5 -271zM595 0h-204v211h204v-211z" />
    <glyph glyph-name="at" unicode="@" horiz-adv-x="2088" 
d="M1748 146h-430l-31 131q-164 -139 -318 -139q-173 0 -275 131t-102 362q0 226 122.5 366.5t304.5 140.5q128 0 270 -75v57h147v-872h257q91 160 91 409q0 352 -191.5 555t-529.5 203q-326 0 -541 -220.5t-215 -549.5q0 -346 207 -558t544 -212q194 0 356 44v-128
q-158 -36 -357 -36q-388 0 -633.5 248.5t-245.5 643.5q0 378 254.5 634.5t629.5 256.5q391 0 619 -237.5t228 -637.5q0 -286 -161 -517zM1287 393v549q-130 60 -239 60q-140 0 -218.5 -96t-78.5 -272q0 -353 259 -353q129 0 277 112z" />
    <glyph glyph-name="A" unicode="A" horiz-adv-x="1388" 
d="M960 585l-271 743l-270 -743h541zM1171 0l-155 430h-654l-155 -430h-189l558 1507h237l557 -1507h-199z" />
    <glyph glyph-name="B" unicode="B" horiz-adv-x="1378" 
d="M185 0v1507h444q102 0 173.5 -4t147 -26t129.5 -66.5t80 -104.5t26 -137q0 -200 -202 -308v-8q153 -32 239 -134.5t86 -254.5q0 -215 -154.5 -339.5t-440.5 -124.5h-528zM371 1349v-458h269q195 0 273 63t78 194q0 91 -62 146t-312 55h-246zM371 737v-579h271
q287 0 379.5 79.5t92.5 214.5q0 88 -34 150.5t-106.5 98.5t-281.5 36h-321z" />
    <glyph glyph-name="C" unicode="C" horiz-adv-x="1377" 
d="M814 -27q-338 0 -529.5 204t-191.5 575q0 364 194.5 573t527.5 209q239 0 498 -135v-219h-14q-235 197 -496 197q-238 0 -377 -165.5t-139 -459.5q0 -292 141.5 -456.5t376.5 -164.5q127 0 242 40.5t252 158.5h14v-220q-192 -91 -298.5 -114t-200.5 -23z" />
    <glyph glyph-name="D" unicode="D" horiz-adv-x="1533" 
d="M185 0v1507h363q318 0 500 -83t287.5 -253.5t105.5 -418.5q0 -308 -199.5 -530t-689.5 -222h-367zM371 1349v-1191h194q357 0 519 151t162 446q0 280 -164 437t-517 157h-194z" />
    <glyph glyph-name="E" unicode="E" horiz-adv-x="1265" 
d="M1166 0h-981v1507h981v-162h-795v-439h775v-162h-775v-582h795v-162z" />
    <glyph glyph-name="F" unicode="F" horiz-adv-x="1170" 
d="M1136 1345h-765v-450h679v-162h-679v-733h-186v1507h951v-162z" />
    <glyph glyph-name="G" unicode="G" horiz-adv-x="1491" 
d="M1382 112q-324 -141 -530 -141q-360 0 -559.5 204t-199.5 580q0 365 203 572t556 207q261 0 529 -137v-219h-14q-245 199 -547 199q-248 0 -390.5 -166t-142.5 -450q0 -297 148.5 -464.5t407.5 -167.5q190 0 355 72v388h-391v162h575v-639z" />
    <glyph glyph-name="H" unicode="H" horiz-adv-x="1522" 
d="M1337 0h-186v745h-780v-745h-186v1507h186v-601h780v601h186v-1507z" />
    <glyph glyph-name="I" unicode="I" horiz-adv-x="826" 
d="M703 0h-581v139h198v1229h-198v139h581v-139h-197v-1229h197v-139z" />
    <glyph glyph-name="J" unicode="J" horiz-adv-x="910" 
d="M741 386q0 -191 -118 -299t-324 -108q-121 0 -260 29v173h10q127 -44 223 -44q140 0 211.5 55.5t71.5 269.5v899h-329v146h515v-1121z" />
    <glyph glyph-name="K" unicode="K" horiz-adv-x="1353" 
d="M1347 0h-245l-592 675l-139 -143v-532h-186v1507h186v-781l717 781h228l-666 -711z" />
    <glyph glyph-name="L" unicode="L" horiz-adv-x="1140" 
d="M1124 0h-939v1507h186v-1345h753v-162z" />
    <glyph glyph-name="M" unicode="M" horiz-adv-x="1701" 
d="M1516 0h-186v1294l-435 -884h-102l-435 884v-1294h-173v1507h238l427 -867l426 867h240v-1507z" />
    <glyph glyph-name="N" unicode="N" horiz-adv-x="1518" 
d="M1333 0h-216l-759 1308v-1308h-173v1507h258l717 -1236v1236h173v-1507z" />
    <glyph glyph-name="O" unicode="O" horiz-adv-x="1561" 
d="M780 -31q-321 0 -504 207.5t-183 576.5q0 368 183.5 576.5t503.5 208.5q321 0 504.5 -208.5t183.5 -576.5q0 -367 -183.5 -575.5t-504.5 -208.5zM781 1379q-234 0 -364 -164t-130 -462t130 -461.5t364 -163.5q233 0 363 163.5t130 461.5q0 300 -130 463t-363 163z" />
    <glyph glyph-name="P" unicode="P" horiz-adv-x="1220" 
d="M371 569v-569h-186v1507h416q291 0 430.5 -122.5t139.5 -329.5q0 -215 -152.5 -350.5t-426.5 -135.5h-221zM371 1349v-623h186q229 0 324.5 88.5t95.5 235.5t-93 223t-297 76h-216z" />
    <glyph glyph-name="Q" unicode="Q" horiz-adv-x="1561" 
d="M1498 -365q-107 -28 -232 -28q-172 0 -277 98t-114 271q-51 -5 -95 -5q-321 0 -504 207t-183 575t183.5 576.5t503.5 208.5q321 0 504.5 -208.5t183.5 -576.5q0 -277 -107 -466.5t-308 -268.5q10 -137 68.5 -192.5t177.5 -55.5q91 0 184 35h15v-170zM781 1379
q-234 0 -364 -164t-130 -462t130 -461.5t364 -163.5q233 0 363 163.5t130 461.5q0 300 -130 463t-363 163z" />
    <glyph glyph-name="R" unicode="R" horiz-adv-x="1398" 
d="M1417 0h-243l-496 606h-307v-606h-186v1507h427q301 0 430.5 -113t129.5 -297q0 -311 -305 -438zM371 1349v-590h219q207 0 297 84t90 245q0 261 -353 261h-253z" />
    <glyph glyph-name="S" unicode="S" horiz-adv-x="1300" 
d="M647 -27q-254 0 -533 126v227h13q230 -196 522 -196q180 0 282.5 73.5t102.5 195.5q0 94 -43.5 147.5t-151.5 83.5l-336 68q-187 39 -283.5 141.5t-96.5 266.5q0 186 150 307t391 121q252 0 504 -111v-219h-14q-208 173 -490 173q-156 0 -251.5 -69t-95.5 -181
q0 -187 218 -241q126 -23 280.5 -57.5t221 -72t108 -85.5t62 -109t20.5 -135q0 -196 -159 -325t-421 -129z" />
    <glyph glyph-name="T" unicode="T" horiz-adv-x="1302" 
d="M558 0v1345h-535v162h1256v-162h-535v-1345h-186z" />
    <glyph glyph-name="U" unicode="U" horiz-adv-x="1493" 
d="M1325 598q0 -327 -149 -478t-430 -151q-578 0 -578 629v909h186v-926q0 -242 97 -348.5t295 -106.5q195 0 294 104.5t99 345.5v931h186v-909z" />
    <glyph glyph-name="V" unicode="V" horiz-adv-x="1398" 
d="M1380 1507l-595 -1507h-172l-595 1507h199l488 -1253l486 1253h189z" />
    <glyph glyph-name="W" unicode="W" horiz-adv-x="2051" 
d="M1957 1507l-422 -1507h-167l-344 1252l-341 -1252h-162l-427 1507h191l331 -1209l327 1209h175l327 -1220l330 1220h182z" />
    <glyph glyph-name="X" unicode="X" horiz-adv-x="1371" 
d="M1320 1507l-523 -745l522 -762h-217l-418 631l-429 -631h-203l528 753l-516 754h216l413 -623l423 623h204z" />
    <glyph glyph-name="Y" unicode="Y" horiz-adv-x="1292" 
d="M1288 1507l-548 -883v-624h-186v604l-551 903h207l438 -724l441 724h199z" />
    <glyph glyph-name="Z" unicode="Z" horiz-adv-x="1333" 
d="M1253 0h-1162v168l925 1177h-891v162h1106v-163l-934 -1182h956v-162z" />
    <glyph glyph-name="bracketleft" unicode="[" horiz-adv-x="900" 
d="M744 -397h-521v1971h521v-129h-358v-1713h358v-129z" />
    <glyph glyph-name="yen" unicode="&#xa5;" horiz-adv-x="1272" 
d="M1176 1507l-394 -721h318v-123h-378v-192h378v-123h-376v-348h-176v348h-376v123h378v192h-378v123h308l-387 721h200l344 -675l348 675h191z" />
    <glyph glyph-name="bracketright" unicode="]" horiz-adv-x="900" 
d="M677 -397h-521v129h358v1713h-358v129h521v-1971z" />
    <glyph glyph-name="asciicircum" unicode="^" horiz-adv-x="1646" 
d="M1469 684h-185l-462 657l-461 -659h-184l589 825h114z" />
    <glyph glyph-name="uni0332" unicode="&#x332;" horiz-adv-x="1272" 
d="M1276 -294h-1280v108h1280v-108z" />
    <glyph glyph-name="uni0332" unicode="_" horiz-adv-x="1272" 
d="M1276 -294h-1280v108h1280v-108z" />
    <glyph glyph-name="gravecomb" unicode="&#x300;" horiz-adv-x="1272" 
d="M740 1316h-136l-277 374h231z" />
    <glyph glyph-name="gravecomb" unicode="`" horiz-adv-x="1272" 
d="M740 1316h-136l-277 374h231z" />
    <glyph glyph-name="a" unicode="a" horiz-adv-x="1188" 
d="M852 269v328q-373 -17 -479.5 -82.5t-106.5 -180.5q0 -203 246 -203q167 0 340 138zM852 0v126q-141 -102 -232 -129.5t-185 -27.5q-151 0 -251 100t-100 254q0 197 148.5 296.5t619.5 118.5v34q0 118 -70 174.5t-246 56.5q-155 0 -345 -80h-8v183q187 51 360 51
q251 0 367.5 -93.5t116.5 -290.5v-773h-175z" />
    <glyph glyph-name="b" unicode="b" horiz-adv-x="1246" 
d="M347 60l-15 -60h-162v1574h176v-568q193 156 375 156q199 0 317.5 -157t118.5 -430q0 -270 -143 -438t-354 -168q-165 0 -313 91zM346 863v-670q150 -67 278 -67q166 0 258.5 116t92.5 328q0 426 -305 426q-162 0 -324 -133z" />
    <glyph glyph-name="c" unicode="c" horiz-adv-x="1038" 
d="M991 69q-203 -95 -354 -95q-261 0 -405.5 153t-144.5 436q0 277 149 436t402 159q167 0 353 -93v-196h-8q-187 137 -349 137q-173 0 -269 -115t-96 -328t95.5 -325t269.5 -112q167 0 349 135h8v-192z" />
    <glyph glyph-name="d" unicode="d" horiz-adv-x="1246" 
d="M900 268v669q-148 68 -277 68q-166 0 -259 -116.5t-93 -327.5q0 -426 305 -426q171 0 324 133zM900 0v125q-193 -156 -374 -156q-200 0 -318.5 157t-118.5 429q0 269 143 438t353 169q147 0 315 -89v501h176v-1574h-176z" />
    <glyph glyph-name="e" unicode="e" horiz-adv-x="1182" 
d="M267 682h663q-8 337 -309 337q-152 0 -246 -90t-108 -247zM680 -26q-282 0 -437.5 152.5t-155.5 431.5q0 277 149 440.5t395 163.5q224 0 347.5 -134t123.5 -382v-97h-835q0 -204 110.5 -313.5t305.5 -109.5q194 0 388 135h8v-191q-241 -96 -399 -96z" />
    <glyph glyph-name="f" unicode="f" horiz-adv-x="687" 
d="M771 1403h-6q-92 30 -163 30q-135 0 -192 -63t-57 -207v-33h346v-144h-340v-986h-176v986h-129v144h129v44q0 199 100 305t286 106q91 0 202 -20v-162z" />
    <glyph glyph-name="g" unicode="g" horiz-adv-x="1243" 
d="M1073 128q0 -556 -527 -556q-173 0 -344 47v182h8q175 -72 346 -72q173 0 257 77.5t84 250.5v112q-181 -152 -379 -152q-201 0 -315 148t-114 410t140.5 424.5t348.5 162.5q164 0 319 -89l13 57h163v-1002zM897 311v625q-149 69 -278 69q-165 0 -256.5 -109t-91.5 -312
q0 -404 300 -404q159 0 326 131z" />
    <glyph glyph-name="h" unicode="h" horiz-adv-x="1266" 
d="M1104 0h-176v632q0 221 -58 292.5t-191 71.5q-156 0 -333 -145v-851h-176v1574h176v-579q198 167 393 167q175 0 270 -109.5t95 -316.5v-736z" />
    <glyph glyph-name="i" unicode="i" horiz-adv-x="520" 
d="M359 1356h-199v183h199v-183zM348 0h-176v1130h176v-1130z" />
    <glyph glyph-name="j" unicode="j" horiz-adv-x="673" 
d="M506 1356h-199v183h199v-183zM503 -22q0 -188 -99.5 -294.5t-271.5 -106.5q-109 0 -212 28v166h10q99 -39 182 -39q113 0 164 60t51 254v939h-247v145h423v-1152z" />
    <glyph glyph-name="k" unicode="k" horiz-adv-x="1129" 
d="M1136 0h-233l-452 499l-105 -101v-398h-176v1574h176v-1000l529 556h220l-514 -520z" />
    <glyph glyph-name="l" unicode="l" horiz-adv-x="520" 
d="M348 0h-176v1574h176v-1574z" />
    <glyph glyph-name="m" unicode="m" horiz-adv-x="1965" 
d="M1627 0v633q0 183 -25.5 244.5t-78 90t-132.5 28.5q-137 0 -323 -151q6 -52 6 -133v-712h-176v633q0 188 -25.5 247.5t-77 87.5t-130.5 28q-143 0 -319 -146v-850h-176v1130h176v-136q201 168 380 168q231 0 312 -185q218 185 414 185q351 0 351 -426v-736h-176z" />
    <glyph glyph-name="n" unicode="n" horiz-adv-x="1266" 
d="M1104 0h-176v633q0 220 -58 291.5t-191 71.5q-157 0 -333 -146v-850h-176v1130h176v-136q199 168 393 168q175 0 270 -109.5t95 -316.5v-736z" />
    <glyph glyph-name="o" unicode="o" horiz-adv-x="1216" 
d="M608 -31q-241 0 -381 159.5t-140 435.5t141 437t380 161t380 -160t141 -438t-140.5 -436.5t-380.5 -158.5zM608 1012q-163 0 -251 -115t-88 -333q0 -215 88 -330t251 -115t251 115t88 330q0 448 -339 448z" />
    <glyph glyph-name="p" unicode="p" horiz-adv-x="1246" 
d="M346 65v-482h-176v1547h176v-125q193 157 375 157q200 0 318 -155.5t118 -427.5q0 -267 -143 -434t-354 -167q-161 0 -314 87zM346 862v-660q150 -67 278 -67q165 0 258 114.5t93 323.5q0 423 -305 423q-162 0 -324 -134z" />
    <glyph glyph-name="q" unicode="q" horiz-adv-x="1246" 
d="M1076 -417h-176v551q-192 -156 -374 -156q-201 0 -319 155.5t-118 426.5q0 267 143 434.5t353 167.5q157 0 315 -88l14 56h162v-1547zM900 277v660q-148 68 -277 68q-166 0 -259 -114.5t-93 -324.5q0 -422 305 -422q168 0 324 133z" />
    <glyph glyph-name="r" unicode="r" horiz-adv-x="846" 
d="M170 0v1130h176v-174q212 174 391 174q63 0 127 -10v-184h-7q-83 20 -168 20q-170 0 -343 -144v-812h-176z" />
    <glyph glyph-name="s" unicode="s" horiz-adv-x="1020" 
d="M489 -27q-212 0 -398 93v204h7q202 -150 401 -150q279 0 279 176q0 69 -37 107t-154 65q-98 19 -225 49t-196.5 105.5t-69.5 193.5q0 150 122 245.5t326 95.5q210 0 369 -82v-194h-7q-175 129 -371 129q-121 0 -191 -44.5t-70 -123.5q0 -70 37.5 -107t149.5 -65l221 -48
q137 -30 206 -105.5t69 -195.5q0 -155 -127 -251.5t-341 -96.5z" />
    <glyph glyph-name="t" unicode="t" horiz-adv-x="776" 
d="M527 -22q-350 0 -350 385v623h-129v144h130v325h175v-325h396v-144h-396v-523q0 -178 24.5 -230.5t74.5 -77t128 -24.5q74 0 163 36h6v-160q-119 -29 -222 -29z" />
    <glyph glyph-name="u" unicode="u" horiz-adv-x="1266" 
d="M1096 0h-176v136q-205 -167 -393 -167q-177 0 -271 109.5t-94 313.5v738h176v-635q0 -218 58.5 -289t190.5 -71q156 0 333 145v850h176v-1130z" />
    <glyph glyph-name="v" unicode="v" horiz-adv-x="1159" 
d="M1127 1130l-481 -1130h-137l-478 1130h191l363 -882l358 882h184z" />
    <glyph glyph-name="w" unicode="w" horiz-adv-x="1706" 
d="M1646 1130l-347 -1130h-127l-313 877l-333 -877h-127l-339 1130h183l243 -850l312 850h133l297 -850l242 850h176z" />
    <glyph glyph-name="x" unicode="x" horiz-adv-x="1138" 
d="M1097 0h-213l-319 439l-327 -439h-197l430 561l-426 569h213l317 -436l324 436h198l-428 -558z" />
    <glyph glyph-name="y" unicode="y" horiz-adv-x="1159" 
d="M1127 1130l-663 -1547h-188l210 466l-455 1081h191l360 -860l361 860h184z" />
    <glyph glyph-name="z" unicode="z" horiz-adv-x="1036" 
d="M975 0h-902v126l664 860h-650v144h871v-121l-668 -863h685v-146z" />
    <glyph glyph-name="braceleft" unicode="{" horiz-adv-x="1228" 
d="M1072 -397h-150q-186 0 -291 103t-105 289v156q0 366 -331 366h-57v143h57q331 0 331 366v156q0 186 105 289t291 103h150v-126h-114q-265 0 -265 -271v-189q0 -268 -288 -387v-25q288 -119 288 -387v-189q0 -271 265 -271h114v-126z" />
    <glyph glyph-name="brokenbar" unicode="&#xa6;" horiz-adv-x="900" 
d="M530 766h-160v808h160v-808zM530 -392h-160v808h160v-808z" />
    <glyph glyph-name="braceright" unicode="}" horiz-adv-x="1228" 
d="M1090 517h-57q-331 0 -331 -366v-156q0 -186 -105 -289t-291 -103h-150v126h114q265 0 265 271v189q0 268 288 387v25q-288 119 -288 387v189q0 271 -265 271h-114v126h150q186 0 291 -103t105 -289v-156q0 -366 331 -366h57v-143z" />
    <glyph glyph-name="tildecomb" unicode="&#x303;" horiz-adv-x="1272" 
d="M1037 1632q-9 -143 -74.5 -223t-168.5 -80q-91 0 -181 78q-70 61 -93.5 76t-53.5 15q-98 0 -109 -174h-121q9 143 75 223t168 80q100 0 180 -77q96 -92 148 -92q99 0 109 174h121z" />
    <glyph glyph-name="tildecomb" unicode="&#x2dc;" horiz-adv-x="1272" 
d="M1037 1632q-9 -143 -74.5 -223t-168.5 -80q-91 0 -181 78q-70 61 -93.5 76t-53.5 15q-98 0 -109 -174h-121q9 143 75 223t168 80q100 0 180 -77q96 -92 148 -92q99 0 109 174h121z" />
    <glyph glyph-name="quoteright" unicode="&#x2019;" horiz-adv-x="530" 
d="M516 1574l-272 -565h-126l166 565h232z" />
    <glyph glyph-name="quoteright" unicode="&#x2bc;" horiz-adv-x="530" 
d="M516 1574l-272 -565h-126l166 565h232z" />
    <glyph glyph-name="glyph99" horiz-adv-x="920" 
d="M949 -304h-161l-724 1878h164z" />
    <glyph glyph-name="quoteleft" unicode="&#x2018;" horiz-adv-x="530" 
d="M402 1574l-166 -565h-232l272 565h126z" />
    <glyph glyph-name="quoteleft" unicode="&#x2bb;" horiz-adv-x="530" 
d="M402 1574l-166 -565h-232l272 565h126z" />
    <glyph glyph-name="bar" unicode="|" horiz-adv-x="900" 
d="M530 -392h-160v1966h160v-1966z" />
    <glyph glyph-name="similar" unicode="&#x223c;" horiz-adv-x="1646" 
d="M1474 934q-4 -235 -100.5 -383t-261.5 -148q-94 0 -160 38t-162 147l-92 106q-45 52 -84 71.5t-75 19.5q-196 0 -212 -383h-155q5 239 100.5 385t260.5 146q96 0 164.5 -40t158.5 -143l106 -123q29 -33 67.5 -54.5t76.5 -21.5q198 0 213 383h155z" />
    <glyph glyph-name="similar" unicode="~" horiz-adv-x="1646" 
d="M1474 934q-4 -235 -100.5 -383t-261.5 -148q-94 0 -160 38t-162 147l-92 106q-45 52 -84 71.5t-75 19.5q-196 0 -212 -383h-155q5 239 100.5 385t260.5 146q96 0 164.5 -40t158.5 -143l106 -123q29 -33 67.5 -54.5t76.5 -21.5q198 0 213 383h155z" />
    <glyph glyph-name="exclamdown" unicode="&#xa1;" horiz-adv-x="776" 
d="M490 919h-204v211h204v-211zM494 -377h-212l27 1097h156z" />
    <glyph glyph-name="cent" unicode="&#xa2;" horiz-adv-x="1272" 
d="M1105 75q-165 -72 -361 -79v-362h-106v365q-237 21 -365.5 170t-128.5 395q0 241 131 393t363 175v360h106v-356q212 -6 361 -78v-186h-9q-166 113 -352 126v-865q169 11 350 128h11v-186zM638 135v862q-149 -17 -230 -130.5t-81 -302.5q0 -391 311 -429z" />
    <glyph glyph-name="sterling" unicode="&#xa3;" horiz-adv-x="1272" 
d="M1148 0h-1026v195q120 32 170.5 129.5t50.5 303.5h-176v128h176v318q0 205 126.5 334.5t331.5 129.5q121 0 321 -53v-200h-11q-138 92 -305 92q-136 0 -210.5 -83.5t-74.5 -234.5v-303h427v-128h-427v-77q0 -251 -222 -379v-11h849v-161z" />
    <glyph glyph-name="fraction" unicode="&#x2044;" horiz-adv-x="312" 
d="M657 1518l-847 -1518h-154l847 1518h154z" />
    <glyph glyph-name="florin" unicode="&#x192;" horiz-adv-x="1272" 
d="M1265 1348h-10q-108 37 -187 37q-124 0 -187 -65t-97 -222l-45 -209h329v-128h-355l-104 -502q-49 -237 -166.5 -349.5t-320.5 -112.5q-66 0 -173 18v169h10q81 -35 174 -35q132 0 195.5 68.5t97.5 233.5l106 510h-225v128h251l43 206q92 442 475 442q71 0 189 -20v-169z
" />
    <glyph glyph-name="section" unicode="&#xa7;" horiz-adv-x="1272" 
d="M893 275v-7q188 -88 188 -280q0 -170 -140 -274t-382 -104q-162 0 -345 59v185h10q183 -90 372 -90q133 0 218 52t85 139q0 64 -30 108.5t-102.5 71.5t-225.5 64q-210 50 -297 132t-87 218q0 203 219 324v7q-188 89 -188 284q0 169 139.5 271.5t382.5 102.5
q166 0 346 -58v-185h-10q-180 89 -373 89q-132 0 -217.5 -51.5t-85.5 -137.5q0 -55 22 -95.5t74.5 -70.5t261.5 -80q211 -51 298 -133t87 -217q0 -200 -220 -324zM501 835q-167 -94 -167 -248q0 -61 25.5 -105t77.5 -71t123.5 -44.5t207.5 -53.5q168 95 168 248
q0 61 -26 105.5t-78 71.5t-123 44t-208 53z" />
    <glyph glyph-name="currency" unicode="&#xa4;" horiz-adv-x="1272" 
d="M1159 241l-105 -100l-237 237q-82 -52 -180 -52q-97 0 -179 52l-237 -237l-105 100l239 239q-53 81 -53 181q0 96 53 181l-239 239l105 100l237 -237q82 52 179 52q98 0 180 -52l237 237l105 -100l-239 -239q53 -82 53 -181q0 -97 -53 -181zM637 862q-81 0 -138.5 -59
t-57.5 -142q0 -82 57 -141.5t139 -59.5q81 0 138.5 59t57.5 142q0 82 -57.5 141.5t-138.5 59.5z" />
    <glyph glyph-name="quotedblleft" unicode="&#x201c;" horiz-adv-x="920" 
d="M792 1574l-168 -565h-228l270 565h126zM402 1574l-168 -565h-228l270 565h126z" />
    <glyph glyph-name="guillemotleft" unicode="&#xab;" horiz-adv-x="1350" 
d="M1171 169l-550 446v88l550 446v-184l-381 -306l381 -306v-184zM711 169l-550 446v88l550 446v-184l-381 -306l381 -306v-184z" />
    <glyph glyph-name="guilsinglleft" unicode="&#x2039;" horiz-adv-x="890" 
d="M711 169l-550 446v88l550 446v-184l-381 -306l381 -306v-184z" />
    <glyph glyph-name="guilsinglright" unicode="&#x203a;" horiz-adv-x="890" 
d="M729 615l-550 -446v184l381 306l-381 306v184l550 -446v-88z" />
    <glyph glyph-name="endash" unicode="&#x2013;" horiz-adv-x="1272" 
d="M1134 585h-996v148h996v-148z" />
    <glyph glyph-name="glyph117" horiz-adv-x="1272" 
d="M1089 1058l-398 5l5 -910h-120l5 910l-398 -5v117l398 -5l-5 404h120l-5 -404l398 5v-117z" />
    <glyph glyph-name="glyph118" horiz-adv-x="1272" 
d="M1089 531l-398 5l5 -394h-120l5 394l-398 -5v117l398 -5v430l-398 -5v117l398 -5l-5 394h120l-5 -394l398 5v-117l-398 5v-430l398 5v-117z" />
    <glyph glyph-name="uni2219" unicode="&#x2219;" horiz-adv-x="715" 
d="M471 527h-227v265h227v-265z" />
    <glyph glyph-name="uni2219" unicode="&#xb7;" horiz-adv-x="715" 
d="M471 527h-227v265h227v-265z" />
    <glyph glyph-name="paragraph" unicode="&#xb6;" horiz-adv-x="1272" 
d="M1085 -367h-136v1754h-226v-1754h-136v979q-208 4 -333.5 128t-125.5 329q0 209 130.5 323.5t372.5 114.5h454v-1874z" />
    <glyph glyph-name="bullet" unicode="&#x2022;" horiz-adv-x="1087" 
d="M543 302q-153 0 -260 107t-107 260t107 260t260 107t260.5 -107t107.5 -260t-107.5 -260t-260.5 -107z" />
    <glyph glyph-name="quotesinglbase" unicode="&#x201a;" horiz-adv-x="530" 
d="M516 273l-272 -565h-126l166 565h232z" />
    <glyph glyph-name="quotedblbase" unicode="&#x201e;" horiz-adv-x="920" 
d="M904 273l-270 -565h-126l168 565h228zM514 273l-270 -565h-126l168 565h228z" />
    <glyph glyph-name="quotedblright" unicode="&#x201d;" horiz-adv-x="920" 
d="M904 1574l-270 -565h-126l168 565h228zM514 1574l-270 -565h-126l168 565h228z" />
    <glyph glyph-name="guillemotright" unicode="&#xbb;" horiz-adv-x="1350" 
d="M1189 615l-550 -446v184l381 306l-381 306v184l550 -446v-88zM729 615l-550 -446v184l381 306l-381 306v184l550 -446v-88z" />
    <glyph glyph-name="glyph126" horiz-adv-x="1646" 
d="M1471 0h-198v223h198v-223zM922 0h-198v223h198v-223zM373 0h-198v223h198v-223z" />
    <glyph glyph-name="glyph127" horiz-adv-x="2990" 
d="M502 642q-368 0 -368 447q0 448 368 448q367 0 367 -447q0 -448 -367 -448zM502 1416q-106 0 -154 -73.5t-48 -253.5q0 -181 47.5 -253.5t154.5 -72.5q106 0 153.5 72.5t47.5 254.5q0 178 -47.5 252t-153.5 74zM1561 1518l-847 -1518h-154l847 1518h154zM2489 -29
q-368 0 -368 447q0 448 368 448q367 0 367 -447q0 -448 -367 -448zM2489 745q-106 0 -154 -73.5t-48 -253.5q0 -181 47.5 -253.5t154.5 -72.5q106 0 153.5 72.5t47.5 254.5q0 178 -47.5 252t-153.5 74zM1613 -29q-368 0 -368 447q0 448 368 448q367 0 367 -447
q0 -448 -367 -448zM1613 745q-106 0 -154 -73.5t-48 -253.5q0 -181 47.5 -253.5t154.5 -72.5q106 0 153.5 72.5t47.5 254.5q0 178 -47.5 252t-153.5 74z" />
    <glyph glyph-name="questiondown" unicode="&#xbf;" horiz-adv-x="1087" 
d="M695 919h-204v211h204v-211zM941 -336q-197 -72 -381 -72q-213 0 -338.5 104.5t-125.5 279.5q0 136 76 250t341 270v234h167v-304q-258 -143 -325 -237.5t-67 -197.5q0 -115 75.5 -177.5t210.5 -62.5q168 0 356 104h11v-191z" />
    <glyph glyph-name="acutecomb" unicode="&#x301;" horiz-adv-x="1272" 
d="M944 1690l-277 -374h-136l182 374h231z" />
    <glyph glyph-name="acutecomb" unicode="&#xb4;" horiz-adv-x="1272" 
d="M944 1690l-277 -374h-136l182 374h231z" />
    <glyph glyph-name="uni0302" unicode="&#x302;" horiz-adv-x="1272" 
d="M975 1311h-147l-194 262l-193 -262h-143l232 379h213z" />
    <glyph glyph-name="uni0302" unicode="&#x2c6;" horiz-adv-x="1272" 
d="M975 1311h-147l-194 262l-193 -262h-143l232 379h213z" />
    <glyph glyph-name="uni0304" unicode="&#x304;" horiz-adv-x="1272" 
d="M1032 1407h-792v142h792v-142z" />
    <glyph glyph-name="uni0304" unicode="&#xaf;" horiz-adv-x="1272" 
d="M1032 1407h-792v142h792v-142z" />
    <glyph glyph-name="uni0306" unicode="&#x306;" horiz-adv-x="1272" 
d="M1006 1684q-11 -167 -110.5 -269t-259.5 -102q-161 0 -258.5 100t-110.5 271h154q26 -252 216 -252q193 0 215 252h154z" />
    <glyph glyph-name="uni0307" unicode="&#x307;" horiz-adv-x="1272" 
d="M736 1356h-199v183h199v-183z" />
    <glyph glyph-name="uni0308" unicode="&#x308;" horiz-adv-x="1272" 
d="M943 1356h-199v183h199v-183zM528 1356h-199v183h199v-183z" />
    <glyph glyph-name="uni0308" unicode="&#xa8;" horiz-adv-x="1272" 
d="M943 1356h-199v183h199v-183zM528 1356h-199v183h199v-183z" />
    <glyph glyph-name="uni030A" unicode="&#x30a;" horiz-adv-x="1272" 
d="M930 1570q0 -118 -82.5 -195t-211.5 -77t-211.5 76.5t-82.5 195.5q0 118 82.5 195t211.5 77q130 0 212 -77t82 -195zM797 1570q0 74 -45 122.5t-116 48.5t-116 -48.5t-45 -122.5q0 -75 45 -123t116 -48t116 48.5t45 122.5z" />
    <glyph glyph-name="uni0327" unicode="&#x327;" horiz-adv-x="1272" 
d="M339 -398v149h7q93 -36 162 -36q208 0 208 172q0 47 -8 108l138 31q10 -56 10 -121q0 -154 -87 -241t-236 -87q-95 0 -194 25z" />
    <glyph glyph-name="uni0327" unicode="&#xb8;" horiz-adv-x="1272" 
d="M339 -398v149h7q93 -36 162 -36q208 0 208 172q0 47 -8 108l138 31q10 -56 10 -121q0 -154 -87 -241t-236 -87q-95 0 -194 25z" />
    <glyph glyph-name="uni030B" unicode="&#x30b;" horiz-adv-x="1272" 
d="M1122 1690l-258 -374h-127l169 374h216zM718 1690l-258 -374h-127l169 374h216z" />
    <glyph glyph-name="uni0328" unicode="&#x328;" horiz-adv-x="1272" 
d="M810 -386q-96 -31 -186 -31q-89 0 -143.5 48t-54.5 127q0 88 135 262h132q-114 -111 -114 -203q0 -94 101 -94q59 0 124 38h6v-147z" />
    <glyph glyph-name="uni030C" unicode="&#x30c;" horiz-adv-x="1272" 
d="M975 1690l-232 -379h-213l-232 379h147l194 -262l193 262h143z" />
    <glyph glyph-name="emdash" unicode="&#x2014;" 
d="M1895 585h-1742v148h1742v-148z" />
    <glyph glyph-name="emdash" unicode="&#x336;" 
d="M1895 585h-1742v148h1742v-148z" />
    <glyph glyph-name="AE" unicode="&#xc6;" horiz-adv-x="2031" 
d="M1931 0h-944v569h-544l-235 -569h-194l646 1507h1271v-162h-761v-439h741v-162h-741v-582h761v-162zM987 729v621h-211l-265 -621h476z" />
    <glyph glyph-name="ordfeminine" unicode="&#xaa;" horiz-adv-x="1087" 
d="M929 571h-159v99q-109 -81 -182 -101.5t-144 -20.5q-133 0 -220.5 84.5t-87.5 214.5q0 166 125.5 248.5t508.5 98.5v25q0 88 -51 131t-190 43q-111 0 -300 -63h-13v162q163 45 306 45q407 0 407 -328v-638zM770 805v259q-243 -16 -318 -36t-113.5 -63.5t-38.5 -108.5
q0 -159 194 -159q132 0 276 108z" />
    <glyph glyph-name="Lslash" unicode="&#x141;" horiz-adv-x="1150" 
d="M1134 0h-939v549l-170 -108v165l170 107v794h186v-684l416 262v-165l-416 -261v-497h753v-162z" />
    <glyph glyph-name="Oslash" unicode="&#xd8;" horiz-adv-x="1561" 
d="M381 83l-156 -229h-116l198 290q-214 211 -214 609q0 368 183.5 576.5t503.5 208.5q233 0 398 -113l139 204h116l-182 -265q217 -210 217 -611q0 -367 -183.5 -575.5t-504.5 -208.5q-235 0 -399 114zM1082 1284q-119 98 -301 98q-236 0 -367 -163.5t-131 -465.5
q0 -298 126 -462zM1151 1218l-674 -994q122 -99 304 -99q236 0 366.5 164t130.5 464q0 303 -127 465z" />
    <glyph glyph-name="OE" unicode="&#x152;" horiz-adv-x="2140" 
d="M2040 0h-1066q-309 0 -488.5 83t-286.5 263t-107 406q0 175 55 314.5t171.5 246t276 150.5t383.5 44h1062v-162h-761v-439h741v-162h-741v-582h761v-162zM1094 158v1191h-125q-364 0 -523 -157t-159 -437q0 -293 160.5 -445t521.5 -152h125z" />
    <glyph glyph-name="ordmasculine" unicode="&#xba;" horiz-adv-x="1087" 
d="M544 548q-202 0 -320 132.5t-118 361.5q0 230 118.5 362.5t319.5 132.5t319 -132.5t118 -362.5t-118 -362t-319 -132zM544 1397q-267 0 -267 -355q0 -354 267 -354q266 0 266 354q0 355 -266 355z" />
    <glyph glyph-name="ae" unicode="&#xe6;" horiz-adv-x="1916" 
d="M1835 573h-825q0 -447 401 -447q215 0 389 135h12v-192q-242 -95 -397 -95q-321 0 -475 209q-238 -212 -490 -212q-157 0 -261.5 98t-104.5 248q0 200 156 295t608 97v69q0 116 -68.5 172t-233.5 56q-159 0 -355 -83h-9v183q190 54 362 54q308 0 426 -189
q162 191 397 191q223 0 345.5 -132.5t122.5 -380.5v-76zM1666 706q-24 313 -305 313q-142 0 -234 -84t-115 -229h654zM882 296q-43 120 -43 277q-287 -11 -382 -34.5t-143 -76t-48 -131.5q0 -199 249 -199q200 0 367 164z" />
    <glyph glyph-name="dotlessi" unicode="&#x131;" horiz-adv-x="520" 
d="M348 0h-176v1130h176v-1130z" />
    <glyph glyph-name="lslash" unicode="&#x142;" horiz-adv-x="540" 
d="M521 851l-163 -102v-749h-176v646l-163 -103v151l163 102v778h176v-675l163 103v-151z" />
    <glyph glyph-name="oslash" unicode="&#xf8;" horiz-adv-x="1216" 
d="M319 48l-130 -196h-104l167 251q-165 162 -165 461q0 276 141 437t380 161q167 0 289 -81l115 174h105l-153 -229q165 -162 165 -462q0 -278 -140.5 -436.5t-380.5 -158.5q-165 0 -289 79zM811 951q-80 64 -203 64q-165 0 -254 -116.5t-89 -334.5q0 -207 79 -322z
M873 888l-467 -709q81 -63 202 -63q164 0 253.5 116t89.5 332q0 209 -78 324z" />
    <glyph glyph-name="oe" unicode="&#x153;" horiz-adv-x="1994" 
d="M1913 549h-812q0 -204 107.5 -314t297.5 -110q186 0 376 136h8v-191q-237 -97 -389 -97q-325 0 -481 230q-143 -234 -421 -234q-236 0 -374 159.5t-138 435.5q0 277 139 437.5t373 160.5q281 0 422 -235q151 235 432 235q220 0 340 -134t120 -382v-97zM1741 682
q-8 337 -298 337q-148 0 -238.5 -90.5t-103.5 -246.5h640zM599 1012q-159 0 -244.5 -115t-85.5 -333q0 -215 86 -330t244 -115t244 115t86 330q0 448 -330 448z" />
    <glyph glyph-name="germandbls" unicode="&#xdf;" horiz-adv-x="1238" 
d="M477 4v156h10q73 -44 195 -44q137 0 211.5 101t74.5 275q0 345 -422 345v141q323 0 323 263q0 88 -63.5 146t-175.5 58q-284 0 -284 -347v-1098h-176v1093q0 234 125.5 363t343.5 129q186 0 299 -88.5t113 -240.5q0 -115 -69.5 -204.5t-185.5 -123.5v-9q169 -40 262 -153
t93 -279q0 -222 -135.5 -366.5t-346.5 -144.5q-112 0 -192 28z" />
    <glyph glyph-name="minus" unicode="&#x2212;" horiz-adv-x="1646" 
d="M1441 585h-1236v148h1236v-148z" />
    <glyph glyph-name="minus" unicode="&#xad;" horiz-adv-x="1646" 
d="M1441 585h-1236v148h1236v-148z" />
    <glyph glyph-name="copyright" unicode="&#xa9;" 
d="M1024 -191q-358 0 -611.5 253t-253.5 612q0 358 253.5 611t611.5 253t611.5 -253t253.5 -611q0 -359 -253.5 -612t-611.5 -253zM1025 1428q-312 0 -530.5 -220.5t-218.5 -533.5t218.5 -534t530.5 -221t530.5 221t218.5 534t-218.5 533.5t-530.5 220.5zM1371 280
q-179 -77 -319 -77q-230 0 -358 124t-128 352q0 223 131 351t355 128q158 0 319 -75v-174h-11q-162 110 -313 110q-305 0 -305 -340q0 -337 305 -337q149 0 312 110h12v-172z" />
    <glyph glyph-name="logicalnot" unicode="&#xac;" horiz-adv-x="1646" 
d="M1438 64h-159v551h-1084v148h1243v-699z" />
    <glyph glyph-name="registered" unicode="&#xae;" 
d="M1024 -191q-358 0 -611.5 253t-253.5 612q0 358 253.5 611t611.5 253t611.5 -253t253.5 -611q0 -359 -253.5 -612t-611.5 -253zM1025 1428q-312 0 -530.5 -220.5t-218.5 -533.5t218.5 -534t530.5 -221t530.5 221t218.5 534t-218.5 533.5t-530.5 220.5zM1573 237h-214
l-331 355h-165v-355h-160v909h309q217 0 305.5 -65t88.5 -183q0 -179 -215 -262zM863 1027v-315h129q127 0 183.5 43.5t56.5 131.5q0 68 -48.5 104t-169.5 36h-151z" />
    <glyph glyph-name="degree" unicode="&#xb0;" horiz-adv-x="1080" 
d="M540 737q-169 0 -285 115t-116 285t115.5 285t285.5 115q171 0 286 -115t115 -285t-115.5 -285t-285.5 -115zM540 1389q-106 0 -176.5 -72t-70.5 -180t71 -180t176 -72q106 0 176.5 72.5t70.5 179.5t-70 179.5t-177 72.5z" />
    <glyph glyph-name="plusminus" unicode="&#xb1;" horiz-adv-x="1646" 
d="M1446 175h-1246v146h546v451h-546v146h546v551h154v-551h546v-146h-546v-451h546v-146z" />
    <glyph glyph-name="uni00B2" unicode="&#xb2;" horiz-adv-x="950" 
d="M851 564h-703v144q306 246 401.5 350.5t95.5 203.5q0 143 -181 143q-124 0 -278 -80h-13v146q145 66 294 66q160 0 251 -72.5t91 -196.5q0 -114 -79.5 -221t-393.5 -351h515v-132z" />
    <glyph glyph-name="uni00B3" unicode="&#xb3;" horiz-adv-x="950" 
d="M152 607v151h14q150 -82 292 -82q97 0 156 49t59 136q0 154 -216 154h-77v128h63q211 0 211 144q0 57 -47.5 87.5t-134.5 30.5q-130 0 -281 -80h-11v147q145 65 296 65q165 0 253.5 -65.5t88.5 -172.5q0 -73 -51.5 -132t-128.5 -80q198 -40 198 -237q0 -134 -104 -220
t-271 -86q-151 0 -309 63z" />
    <glyph glyph-name="uni00B5" unicode="&#xb5;" horiz-adv-x="1280" 
d="M1110 0h-174v130q-136 -151 -299 -151q-77 0 -141 29t-150 117v-542h-176v1547h176v-865q43 -51 125.5 -86.5t167.5 -35.5q181 0 295 128v859h176v-1130z" />
    <glyph glyph-name="uni00B9" unicode="&#xb9;" horiz-adv-x="950" 
d="M795 564h-567v118h206v600h-206v108q105 0 146.5 16t62 44.5t24.5 71.5h130v-840h204v-118z" />
    <glyph glyph-name="onequarter" unicode="&#xbc;" horiz-adv-x="2212" 
d="M795 564h-567v118h206v600h-206v108q105 0 146.5 16t62 44.5t24.5 71.5h130v-840h204v-118zM1617 1518l-847 -1518h-154l847 1518h154zM2076 265h-147v-267h-155v267h-479v152l494 538h140v-565h147v-125zM1774 390v368l-338 -368h338z" />
    <glyph glyph-name="onehalf" unicode="&#xbd;" horiz-adv-x="2212" 
d="M795 564h-567v118h206v600h-206v108q105 0 146.5 16t62 44.5t24.5 71.5h130v-840h204v-118zM1607 1518l-847 -1518h-154l847 1518h154zM2083 0h-703v144q306 246 401.5 350.5t95.5 203.5q0 143 -181 143q-124 0 -278 -80h-13v146q145 66 294 66q160 0 251 -72.5
t91 -196.5q0 -114 -79.5 -221t-393.5 -351h515v-132z" />
    <glyph glyph-name="threequarters" unicode="&#xbe;" horiz-adv-x="2212" 
d="M152 607v151h14q150 -82 292 -82q97 0 156 49t59 136q0 154 -216 154h-77v128h63q211 0 211 144q0 57 -47.5 87.5t-134.5 30.5q-130 0 -281 -80h-11v147q145 65 296 65q165 0 253.5 -65.5t88.5 -172.5q0 -73 -51.5 -132t-128.5 -80q198 -40 198 -237q0 -134 -104 -220
t-271 -86q-151 0 -309 63zM1617 1518l-847 -1518h-154l847 1518h154zM2076 265h-147v-267h-155v267h-479v152l494 538h140v-565h147v-125zM1774 390v368l-338 -368h338z" />
    <glyph glyph-name="Agrave" unicode="&#xc0;" horiz-adv-x="1388" 
d="M960 585l-271 743l-270 -743h541zM1171 0l-155 430h-654l-155 -430h-189l558 1507h237l557 -1507h-199zM850 1692h-136l-277 374h231z" />
    <glyph glyph-name="Aacute" unicode="&#xc1;" horiz-adv-x="1388" 
d="M960 585l-271 743l-270 -743h541zM1171 0l-155 430h-654l-155 -430h-189l558 1507h237l557 -1507h-199zM946 2066l-277 -374h-136l182 374h231z" />
    <glyph glyph-name="Acircumflex" unicode="&#xc2;" horiz-adv-x="1388" 
d="M960 585l-271 743l-270 -743h541zM1171 0l-155 430h-654l-155 -430h-189l558 1507h237l557 -1507h-199zM1025 1687h-147l-194 262l-193 -262h-143l232 379h213z" />
    <glyph glyph-name="Atilde" unicode="&#xc3;" horiz-adv-x="1388" 
d="M960 585l-271 743l-270 -743h541zM1171 0l-155 430h-654l-155 -430h-189l558 1507h237l557 -1507h-199zM1099 2008q-9 -143 -74.5 -223t-168.5 -80q-91 0 -181 78q-70 61 -93.5 76t-53.5 15q-98 0 -109 -174h-121q9 143 75 223t168 80q100 0 180 -77q96 -92 148 -92
q99 0 109 174h121z" />
    <glyph glyph-name="Adieresis" unicode="&#xc4;" horiz-adv-x="1388" 
d="M960 585l-271 743l-270 -743h541zM1171 0l-155 430h-654l-155 -430h-189l558 1507h237l557 -1507h-199zM1001 1732h-199v183h199v-183zM586 1732h-199v183h199v-183z" />
    <glyph glyph-name="Aring" unicode="&#xc5;" horiz-adv-x="1388" 
d="M960 585l-271 743l-270 -743h541zM1171 0l-155 430h-654l-155 -430h-189l558 1507h237l557 -1507h-199zM988 1899q0 -118 -82.5 -195t-211.5 -77t-211.5 76.5t-82.5 195.5q0 118 82.5 195t211.5 77q130 0 212 -77t82 -195zM855 1899q0 74 -45 122.5t-116 48.5t-116 -48.5
t-45 -122.5q0 -75 45 -123t116 -48t116 48.5t45 122.5z" />
    <glyph glyph-name="Ccedilla" unicode="&#xc7;" horiz-adv-x="1377" 
d="M814 -26q-338 0 -529.5 203.5t-191.5 574.5q0 364 194.5 573t527.5 209q239 0 498 -135v-219h-14q-235 197 -496 197q-238 0 -377 -165.5t-139 -459.5q0 -292 141.5 -456.5t376.5 -164.5q127 0 242 40.5t252 158.5h14v-220q-172 -83 -285 -110q6 -42 6 -95
q0 -154 -87 -241t-236 -87q-95 0 -194 25v149h7q93 -36 162 -36q208 0 208 172q0 46 -6 90q-36 -3 -74 -3z" />
    <glyph glyph-name="Egrave" unicode="&#xc8;" horiz-adv-x="1265" 
d="M1166 0h-981v1507h981v-162h-795v-439h775v-162h-775v-582h795v-162zM777 1692h-136l-277 374h231z" />
    <glyph glyph-name="Eacute" unicode="&#xc9;" horiz-adv-x="1265" 
d="M1166 0h-981v1507h981v-162h-795v-439h775v-162h-775v-582h795v-162zM974 2066l-277 -374h-136l182 374h231z" />
    <glyph glyph-name="Ecircumflex" unicode="&#xca;" horiz-adv-x="1265" 
d="M1166 0h-981v1507h981v-162h-795v-439h775v-162h-775v-582h795v-162zM1020 1687h-147l-194 262l-193 -262h-143l232 379h213z" />
    <glyph glyph-name="Edieresis" unicode="&#xcb;" horiz-adv-x="1265" 
d="M1166 0h-981v1507h981v-162h-795v-439h775v-162h-775v-582h795v-162zM1020 1732h-199v183h199v-183zM605 1732h-199v183h199v-183z" />
    <glyph glyph-name="Igrave" unicode="&#xcc;" horiz-adv-x="826" 
d="M703 0h-581v139h198v1229h-198v139h581v-139h-197v-1229h197v-139zM512 1692h-136l-277 374h231z" />
    <glyph glyph-name="Iacute" unicode="&#xcd;" horiz-adv-x="826" 
d="M703 0h-581v139h198v1229h-198v139h581v-139h-197v-1229h197v-139zM727 2066l-277 -374h-136l182 374h231z" />
    <glyph glyph-name="Icircumflex" unicode="&#xce;" horiz-adv-x="826" 
d="M703 0h-581v139h198v1229h-198v139h581v-139h-197v-1229h197v-139zM752 1687h-147l-194 262l-193 -262h-143l232 379h213z" />
    <glyph glyph-name="Idieresis" unicode="&#xcf;" horiz-adv-x="826" 
d="M703 0h-581v139h198v1229h-198v139h581v-139h-197v-1229h197v-139zM720 1732h-199v183h199v-183zM305 1732h-199v183h199v-183z" />
    <glyph glyph-name="Eth" unicode="&#xd0;" horiz-adv-x="1543" 
d="M195 0v745h-170v144h170v618h363q318 0 500 -83t287.5 -253.5t105.5 -418.5q0 -308 -199.5 -530t-689.5 -222h-367zM379 1349v-460h418v-144h-418v-587h196q357 0 519 151t162 446q0 280 -164 437t-517 157h-196z" />
    <glyph glyph-name="Ntilde" unicode="&#xd1;" horiz-adv-x="1518" 
d="M1333 0h-216l-759 1308v-1308h-173v1507h258l717 -1236v1236h173v-1507zM1160 2008q-9 -143 -74.5 -223t-168.5 -80q-91 0 -181 78q-70 61 -93.5 76t-53.5 15q-98 0 -109 -174h-121q9 143 75 223t168 80q100 0 180 -77q96 -92 148 -92q99 0 109 174h121z" />
    <glyph glyph-name="Ograve" unicode="&#xd2;" horiz-adv-x="1561" 
d="M780 -31q-321 0 -504 207.5t-183 576.5q0 368 183.5 576.5t503.5 208.5q321 0 504.5 -208.5t183.5 -576.5q0 -367 -183.5 -575.5t-504.5 -208.5zM781 1379q-234 0 -364 -164t-130 -462t130 -461.5t364 -163.5q233 0 363 163.5t130 461.5q0 300 -130 463t-363 163z
M872 1692h-136l-277 374h231z" />
    <glyph glyph-name="Oacute" unicode="&#xd3;" horiz-adv-x="1561" 
d="M780 -31q-321 0 -504 207.5t-183 576.5q0 368 183.5 576.5t503.5 208.5q321 0 504.5 -208.5t183.5 -576.5q0 -367 -183.5 -575.5t-504.5 -208.5zM781 1379q-234 0 -364 -164t-130 -462t130 -461.5t364 -163.5q233 0 363 163.5t130 461.5q0 300 -130 463t-363 163z
M1102 2066l-277 -374h-136l182 374h231z" />
    <glyph glyph-name="Ocircumflex" unicode="&#xd4;" horiz-adv-x="1561" 
d="M780 -31q-321 0 -504 207.5t-183 576.5q0 368 183.5 576.5t503.5 208.5q321 0 504.5 -208.5t183.5 -576.5q0 -367 -183.5 -575.5t-504.5 -208.5zM781 1379q-234 0 -364 -164t-130 -462t130 -461.5t364 -163.5q233 0 363 163.5t130 461.5q0 300 -130 463t-363 163z
M1119 1687h-147l-194 262l-193 -262h-143l232 379h213z" />
    <glyph glyph-name="Otilde" unicode="&#xd5;" horiz-adv-x="1561" 
d="M780 -31q-321 0 -504 207.5t-183 576.5q0 368 183.5 576.5t503.5 208.5q321 0 504.5 -208.5t183.5 -576.5q0 -367 -183.5 -575.5t-504.5 -208.5zM781 1379q-234 0 -364 -164t-130 -462t130 -461.5t364 -163.5q233 0 363 163.5t130 461.5q0 300 -130 463t-363 163z
M1170 2008q-9 -143 -74.5 -223t-168.5 -80q-91 0 -181 78q-70 61 -93.5 76t-53.5 15q-98 0 -109 -174h-121q9 143 75 223t168 80q100 0 180 -77q96 -92 148 -92q99 0 109 174h121z" />
    <glyph glyph-name="Odieresis" unicode="&#xd6;" horiz-adv-x="1561" 
d="M780 -31q-321 0 -504 207.5t-183 576.5q0 368 183.5 576.5t503.5 208.5q321 0 504.5 -208.5t183.5 -576.5q0 -367 -183.5 -575.5t-504.5 -208.5zM781 1379q-234 0 -364 -164t-130 -462t130 -461.5t364 -163.5q233 0 363 163.5t130 461.5q0 300 -130 463t-363 163z
M1088 1732h-199v183h199v-183zM673 1732h-199v183h199v-183z" />
    <glyph glyph-name="multiply" unicode="&#xd7;" horiz-adv-x="1646" 
d="M1377 206l-101 -101l-453 454l-453 -454l-101 101l454 453l-454 453l101 101l453 -454l453 454l101 -101l-454 -453z" />
    <glyph glyph-name="Ugrave" unicode="&#xd9;" horiz-adv-x="1493" 
d="M1325 598q0 -327 -149 -478t-430 -151q-578 0 -578 629v909h186v-926q0 -242 97 -348.5t295 -106.5q195 0 294 104.5t99 345.5v931h186v-909zM852 1692h-136l-277 374h231z" />
    <glyph glyph-name="Uacute" unicode="&#xda;" horiz-adv-x="1493" 
d="M1325 598q0 -327 -149 -478t-430 -151q-578 0 -578 629v909h186v-926q0 -242 97 -348.5t295 -106.5q195 0 294 104.5t99 345.5v931h186v-909zM1054 2066l-277 -374h-136l182 374h231z" />
    <glyph glyph-name="Ucircumflex" unicode="&#xdb;" horiz-adv-x="1493" 
d="M1325 598q0 -327 -149 -478t-430 -151q-578 0 -578 629v909h186v-926q0 -242 97 -348.5t295 -106.5q195 0 294 104.5t99 345.5v931h186v-909zM1085 1687h-147l-194 262l-193 -262h-143l232 379h213z" />
    <glyph glyph-name="Udieresis" unicode="&#xdc;" horiz-adv-x="1493" 
d="M1325 598q0 -327 -149 -478t-430 -151q-578 0 -578 629v909h186v-926q0 -242 97 -348.5t295 -106.5q195 0 294 104.5t99 345.5v931h186v-909zM1054 1732h-199v183h199v-183zM639 1732h-199v183h199v-183z" />
    <glyph glyph-name="Yacute" unicode="&#xdd;" horiz-adv-x="1292" 
d="M1288 1507l-548 -883v-624h-186v604l-551 903h207l438 -724l441 724h199zM935 2066l-277 -374h-136l182 374h231z" />
    <glyph glyph-name="Thorn" unicode="&#xde;" horiz-adv-x="1250" 
d="M371 311v-311h-186v1507h186v-259h230q294 0 432 -122.5t138 -328.5q0 -215 -152.5 -350.5t-426.5 -135.5h-221zM371 1091v-623h186q229 0 324.5 88.5t95.5 235.5t-93 223t-297 76h-216z" />
    <glyph glyph-name="agrave" unicode="&#xe0;" horiz-adv-x="1188" 
d="M852 269v328q-373 -17 -479.5 -82.5t-106.5 -180.5q0 -203 246 -203q167 0 340 138zM852 0v126q-141 -102 -232 -129.5t-185 -27.5q-151 0 -251 100t-100 254q0 197 148.5 296.5t619.5 118.5v34q0 118 -70 174.5t-246 56.5q-155 0 -345 -80h-8v183q187 51 360 51
q251 0 367.5 -93.5t116.5 -290.5v-773h-175zM712 1316h-136l-277 374h231z" />
    <glyph glyph-name="aacute" unicode="&#xe1;" horiz-adv-x="1188" 
d="M852 269v328q-373 -17 -479.5 -82.5t-106.5 -180.5q0 -203 246 -203q167 0 340 138zM852 0v126q-141 -102 -232 -129.5t-185 -27.5q-151 0 -251 100t-100 254q0 197 148.5 296.5t619.5 118.5v34q0 118 -70 174.5t-246 56.5q-155 0 -345 -80h-8v183q187 51 360 51
q251 0 367.5 -93.5t116.5 -290.5v-773h-175zM898 1690l-277 -374h-136l182 374h231z" />
    <glyph glyph-name="acircumflex" unicode="&#xe2;" horiz-adv-x="1188" 
d="M852 269v328q-373 -17 -479.5 -82.5t-106.5 -180.5q0 -203 246 -203q167 0 340 138zM852 0v126q-141 -102 -232 -129.5t-185 -27.5q-151 0 -251 100t-100 254q0 197 148.5 296.5t619.5 118.5v34q0 118 -70 174.5t-246 56.5q-155 0 -345 -80h-8v183q187 51 360 51
q251 0 367.5 -93.5t116.5 -290.5v-773h-175zM923 1311h-147l-194 262l-193 -262h-143l232 379h213z" />
    <glyph glyph-name="atilde" unicode="&#xe3;" horiz-adv-x="1188" 
d="M852 269v328q-373 -17 -479.5 -82.5t-106.5 -180.5q0 -203 246 -203q167 0 340 138zM852 0v126q-141 -102 -232 -129.5t-185 -27.5q-151 0 -251 100t-100 254q0 197 148.5 296.5t619.5 118.5v34q0 118 -70 174.5t-246 56.5q-155 0 -345 -80h-8v183q187 51 360 51
q251 0 367.5 -93.5t116.5 -290.5v-773h-175zM986 1632q-9 -143 -74.5 -223t-168.5 -80q-91 0 -181 78q-70 61 -93.5 76t-53.5 15q-98 0 -109 -174h-121q9 143 75 223t168 80q100 0 180 -77q96 -92 148 -92q99 0 109 174h121z" />
    <glyph glyph-name="adieresis" unicode="&#xe4;" horiz-adv-x="1188" 
d="M852 269v328q-373 -17 -479.5 -82.5t-106.5 -180.5q0 -203 246 -203q167 0 340 138zM852 0v126q-141 -102 -232 -129.5t-185 -27.5q-151 0 -251 100t-100 254q0 197 148.5 296.5t619.5 118.5v34q0 118 -70 174.5t-246 56.5q-155 0 -345 -80h-8v183q187 51 360 51
q251 0 367.5 -93.5t116.5 -290.5v-773h-175zM891 1356h-199v183h199v-183zM476 1356h-199v183h199v-183z" />
    <glyph glyph-name="aring" unicode="&#xe5;" horiz-adv-x="1188" 
d="M852 269v328q-373 -17 -479.5 -82.5t-106.5 -180.5q0 -203 246 -203q167 0 340 138zM852 0v126q-141 -102 -232 -129.5t-185 -27.5q-151 0 -251 100t-100 254q0 197 148.5 296.5t619.5 118.5v34q0 118 -70 174.5t-246 56.5q-155 0 -345 -80h-8v183q187 51 360 51
q251 0 367.5 -93.5t116.5 -290.5v-773h-175zM875 1570q0 -118 -82.5 -195t-211.5 -77t-211.5 76.5t-82.5 195.5q0 118 82.5 195t211.5 77q130 0 212 -77t82 -195zM742 1570q0 74 -45 122.5t-116 48.5t-116 -48.5t-45 -122.5q0 -75 45 -123t116 -48t116 48.5t45 122.5z" />
    <glyph glyph-name="ccedilla" unicode="&#xe7;" horiz-adv-x="1038" 
d="M700 -23q-30 -3 -63 -3q-261 0 -405.5 153t-144.5 436q0 277 149 436t402 159q167 0 353 -93v-196h-8q-187 137 -349 137q-173 0 -269 -115t-96 -328t95.5 -325t269.5 -112q167 0 349 135h8v-192q-76 -37 -152 -63q7 -51 7 -101q0 -154 -87 -241t-236 -87q-95 0 -194 25
v149h7q93 -36 162 -36q208 0 208 172q0 46 -6 90z" />
    <glyph glyph-name="egrave" unicode="&#xe8;" horiz-adv-x="1182" 
d="M267 682h663q-8 337 -309 337q-152 0 -246 -90t-108 -247zM680 -26q-282 0 -437.5 152.5t-155.5 431.5q0 277 149 440.5t395 163.5q224 0 347.5 -134t123.5 -382v-97h-835q0 -204 110.5 -313.5t305.5 -109.5q194 0 388 135h8v-191q-241 -96 -399 -96zM710 1316h-136
l-277 374h231z" />
    <glyph glyph-name="eacute" unicode="&#xe9;" horiz-adv-x="1182" 
d="M267 682h663q-8 337 -309 337q-152 0 -246 -90t-108 -247zM680 -26q-282 0 -437.5 152.5t-155.5 431.5q0 277 149 440.5t395 163.5q224 0 347.5 -134t123.5 -382v-97h-835q0 -204 110.5 -313.5t305.5 -109.5q194 0 388 135h8v-191q-241 -96 -399 -96zM935 1690l-277 -374
h-136l182 374h231z" />
    <glyph glyph-name="ecircumflex" unicode="&#xea;" horiz-adv-x="1182" 
d="M267 682h663q-8 337 -309 337q-152 0 -246 -90t-108 -247zM680 -26q-282 0 -437.5 152.5t-155.5 431.5q0 277 149 440.5t395 163.5q224 0 347.5 -134t123.5 -382v-97h-835q0 -204 110.5 -313.5t305.5 -109.5q194 0 388 135h8v-191q-241 -96 -399 -96zM955 1311h-147
l-194 262l-193 -262h-143l232 379h213z" />
    <glyph glyph-name="edieresis" unicode="&#xeb;" horiz-adv-x="1182" 
d="M267 682h663q-8 337 -309 337q-152 0 -246 -90t-108 -247zM680 -26q-282 0 -437.5 152.5t-155.5 431.5q0 277 149 440.5t395 163.5q224 0 347.5 -134t123.5 -382v-97h-835q0 -204 110.5 -313.5t305.5 -109.5q194 0 388 135h8v-191q-241 -96 -399 -96zM932 1356h-199v183
h199v-183zM517 1356h-199v183h199v-183z" />
    <glyph glyph-name="igrave" unicode="&#xec;" horiz-adv-x="520" 
d="M348 0h-176v1130h176v-1130zM345 1316h-136l-277 374h231z" />
    <glyph glyph-name="iacute" unicode="&#xed;" horiz-adv-x="520" 
d="M348 0h-176v1130h176v-1130zM579 1690l-277 -374h-136l182 374h231z" />
    <glyph glyph-name="icircumflex" unicode="&#xee;" horiz-adv-x="520" 
d="M348 0h-176v1130h176v-1130zM599 1311h-147l-194 262l-193 -262h-143l232 379h213z" />
    <glyph glyph-name="idieresis" unicode="&#xef;" horiz-adv-x="520" 
d="M348 0h-176v1130h176v-1130zM567 1356h-199v183h199v-183zM152 1356h-199v183h199v-183z" />
    <glyph glyph-name="eth" unicode="&#xf0;" horiz-adv-x="1216" 
d="M925 877q-62 215 -237 388l-320 -175v143l222 121q-138 112 -332 204v16h281q112 -75 192 -142l285 156v-143l-188 -103q290 -293 290 -697q0 -321 -139.5 -498.5t-387.5 -177.5q-233 0 -368.5 138.5t-135.5 383.5q0 224 138 361t347 137q158 0 353 -112zM938 731
q-166 104 -338 104q-151 0 -241 -91t-90 -254q0 -371 322 -371q352 0 352 497q0 35 -5 115z" />
    <glyph glyph-name="ntilde" unicode="&#xf1;" horiz-adv-x="1266" 
d="M1104 0h-176v633q0 220 -58 291.5t-191 71.5q-157 0 -333 -146v-850h-176v1130h176v-136q199 168 393 168q175 0 270 -109.5t95 -316.5v-736zM1027 1632q-9 -143 -74.5 -223t-168.5 -80q-91 0 -181 78q-70 61 -93.5 76t-53.5 15q-98 0 -109 -174h-121q9 143 75 223
t168 80q100 0 180 -77q96 -92 148 -92q99 0 109 174h121z" />
    <glyph glyph-name="ograve" unicode="&#xf2;" horiz-adv-x="1216" 
d="M608 -31q-241 0 -381 159.5t-140 435.5t141 437t380 161t380 -160t141 -438t-140.5 -436.5t-380.5 -158.5zM608 1012q-163 0 -251 -115t-88 -333q0 -215 88 -330t251 -115t251 115t88 330q0 448 -339 448zM712 1316h-136l-277 374h231z" />
    <glyph glyph-name="oacute" unicode="&#xf3;" horiz-adv-x="1216" 
d="M608 -31q-241 0 -381 159.5t-140 435.5t141 437t380 161t380 -160t141 -438t-140.5 -436.5t-380.5 -158.5zM608 1012q-163 0 -251 -115t-88 -333q0 -215 88 -330t251 -115t251 115t88 330q0 448 -339 448zM916 1690l-277 -374h-136l182 374h231z" />
    <glyph glyph-name="ocircumflex" unicode="&#xf4;" horiz-adv-x="1216" 
d="M608 -31q-241 0 -381 159.5t-140 435.5t141 437t380 161t380 -160t141 -438t-140.5 -436.5t-380.5 -158.5zM608 1012q-163 0 -251 -115t-88 -333q0 -215 88 -330t251 -115t251 115t88 330q0 448 -339 448zM946 1311h-147l-194 262l-193 -262h-143l232 379h213z" />
    <glyph glyph-name="otilde" unicode="&#xf5;" horiz-adv-x="1216" 
d="M608 -31q-241 0 -381 159.5t-140 435.5t141 437t380 161t380 -160t141 -438t-140.5 -436.5t-380.5 -158.5zM608 1012q-163 0 -251 -115t-88 -333q0 -215 88 -330t251 -115t251 115t88 330q0 448 -339 448zM1009 1632q-9 -143 -74.5 -223t-168.5 -80q-91 0 -181 78
q-70 61 -93.5 76t-53.5 15q-98 0 -109 -174h-121q9 143 75 223t168 80q100 0 180 -77q96 -92 148 -92q99 0 109 174h121z" />
    <glyph glyph-name="odieresis" unicode="&#xf6;" horiz-adv-x="1216" 
d="M608 -31q-241 0 -381 159.5t-140 435.5t141 437t380 161t380 -160t141 -438t-140.5 -436.5t-380.5 -158.5zM608 1012q-163 0 -251 -115t-88 -333q0 -215 88 -330t251 -115t251 115t88 330q0 448 -339 448zM915 1356h-199v183h199v-183zM500 1356h-199v183h199v-183z" />
    <glyph glyph-name="divide" unicode="&#xf7;" horiz-adv-x="1646" 
d="M937 1033h-228v265h228v-265zM1451 585h-1256v148h1256v-148zM937 20h-228v265h228v-265z" />
    <glyph glyph-name="ugrave" unicode="&#xf9;" horiz-adv-x="1266" 
d="M1096 0h-176v136q-205 -167 -393 -167q-177 0 -271 109.5t-94 313.5v738h176v-635q0 -218 58.5 -289t190.5 -71q156 0 333 145v850h176v-1130zM715 1316h-136l-277 374h231z" />
    <glyph glyph-name="uacute" unicode="&#xfa;" horiz-adv-x="1266" 
d="M1096 0h-176v136q-205 -167 -393 -167q-177 0 -271 109.5t-94 313.5v738h176v-635q0 -218 58.5 -289t190.5 -71q156 0 333 145v850h176v-1130zM934 1690l-277 -374h-136l182 374h231z" />
    <glyph glyph-name="ucircumflex" unicode="&#xfb;" horiz-adv-x="1266" 
d="M1096 0h-176v136q-205 -167 -393 -167q-177 0 -271 109.5t-94 313.5v738h176v-635q0 -218 58.5 -289t190.5 -71q156 0 333 145v850h176v-1130zM972 1311h-147l-194 262l-193 -262h-143l232 379h213z" />
    <glyph glyph-name="udieresis" unicode="&#xfc;" horiz-adv-x="1266" 
d="M1096 0h-176v136q-205 -167 -393 -167q-177 0 -271 109.5t-94 313.5v738h176v-635q0 -218 58.5 -289t190.5 -71q156 0 333 145v850h176v-1130zM940 1356h-199v183h199v-183zM525 1356h-199v183h199v-183z" />
    <glyph glyph-name="yacute" unicode="&#xfd;" horiz-adv-x="1159" 
d="M1127 1130l-663 -1547h-188l210 466l-455 1081h191l360 -860l361 860h184zM867 1690l-277 -374h-136l182 374h231z" />
    <glyph glyph-name="thorn" unicode="&#xfe;" horiz-adv-x="1246" 
d="M346 65v-482h-176v1991h176v-569q193 157 375 157q200 0 318 -155.5t118 -427.5q0 -267 -143 -434t-354 -167q-161 0 -314 87zM346 862v-660q150 -67 278 -67q165 0 258 114.5t93 323.5q0 423 -305 423q-162 0 -324 -134z" />
    <glyph glyph-name="ydieresis" unicode="&#xff;" horiz-adv-x="1159" 
d="M1127 1130l-663 -1547h-188l210 466l-455 1081h191l360 -860l361 860h184zM886 1356h-199v183h199v-183zM471 1356h-199v183h199v-183z" />
    <glyph glyph-name="Scaron" unicode="&#x160;" horiz-adv-x="1300" 
d="M647 -27q-254 0 -533 126v227h13q230 -196 522 -196q180 0 282.5 73.5t102.5 195.5q0 94 -43.5 147.5t-151.5 83.5l-336 68q-187 39 -283.5 141.5t-96.5 266.5q0 186 150 307t391 121q252 0 504 -111v-219h-14q-208 173 -490 173q-156 0 -251.5 -69t-95.5 -181
q0 -187 218 -241q126 -23 280.5 -57.5t221 -72t108 -85.5t62 -109t20.5 -135q0 -196 -159 -325t-421 -129zM975 2066l-232 -379h-213l-232 379h147l194 -262l193 262h143z" />
    <glyph glyph-name="Ydieresis" unicode="&#x178;" horiz-adv-x="1292" 
d="M1288 1507l-548 -883v-624h-186v604l-551 903h207l438 -724l441 724h199zM953 1732h-199v183h199v-183zM538 1732h-199v183h199v-183z" />
    <glyph glyph-name="Zcaron" unicode="&#x17d;" horiz-adv-x="1333" 
d="M1253 0h-1162v168l925 1177h-891v162h1106v-163l-934 -1182h956v-162zM995 2066l-232 -379h-213l-232 379h147l194 -262l193 262h143z" />
    <glyph glyph-name="uni203E" unicode="&#x203e;" horiz-adv-x="1272" 
d="M1276 1801v-108h-1280v108h1280z" />
    <glyph glyph-name="uni203E" unicode="&#x305;" horiz-adv-x="1272" 
d="M1276 1801v-108h-1280v108h1280z" />
    <glyph glyph-name="scaron" unicode="&#x161;" horiz-adv-x="1020" 
d="M489 -27q-212 0 -398 93v204h7q202 -150 401 -150q279 0 279 176q0 69 -37 107t-154 65q-98 19 -225 49t-196.5 105.5t-69.5 193.5q0 150 122 245.5t326 95.5q210 0 369 -82v-194h-7q-175 129 -371 129q-121 0 -191 -44.5t-70 -123.5q0 -70 37.5 -107t149.5 -65l221 -48
q137 -30 206 -105.5t69 -195.5q0 -155 -127 -251.5t-341 -96.5zM828 1690l-232 -379h-213l-232 379h147l194 -262l193 262h143z" />
    <glyph glyph-name="trademark" unicode="&#x2122;" horiz-adv-x="1840" 
d="M1647 803h-124v576l-207 -425h-79l-214 442v-593h-123v704h188l191 -411l191 411h177v-704zM735 1390h-229v-587h-127v587h-229v117h585v-117z" />
    <glyph glyph-name="zcaron" unicode="&#x17e;" horiz-adv-x="1036" 
d="M975 0h-902v126l664 860h-650v144h871v-121l-668 -863h685v-146zM844 1690l-232 -379h-213l-232 379h147l194 -262l193 262h143z" />
    <glyph glyph-name="zero.zero" horiz-adv-x="1272" 
d="M364 312l502 964q-76 108 -229 108q-188 0 -261 -162q-64 -141 -64 -470q0 -301 52 -440zM916 1172l-498 -957q75 -93 219 -93q187 0 260 162q64 141 64 470q0 279 -45 418zM1152 1626l-137 -264q137 -190 137 -608q0 -404 -125 -594.5t-390 -190.5q-185 0 -300 90
l-106 -203h-104l141 272q-147 187 -147 624q0 403 125.5 594t390.5 191q194 0 312 -102l99 191h104z" />
    <glyph glyph-name="Euro" unicode="&#x20ac;" horiz-adv-x="1272" 
d="M1144 65q-190 -94 -377 -94q-476 0 -554 569h-164v123h153q-2 58 -2 92q0 52 3 100h-154v123h165q82 558 553 558q187 0 377 -94v-194h-10q-181 131 -371 131q-310 0 -370 -401h531v-123h-544q-3 -48 -3 -100q0 -34 2 -92h455v-123h-443q58 -412 372 -412q191 0 371 131
h10v-194z" />
    <glyph glyph-name="uni2126" unicode="&#x2126;" horiz-adv-x="1630" 
d="M1545 0h-570v382q206 131 266 251t60 275q0 216 -129 343.5t-357 127.5q-227 0 -356.5 -128.5t-129.5 -342.5q0 -155 60 -275t266 -251v-382h-570v162h416v140q-171 98 -268.5 256t-97.5 347q0 280 187.5 456.5t493.5 176.5q309 0 494 -174t185 -459q0 -189 -97 -346.5
t-269 -256.5v-140h416v-162z" />
    <glyph glyph-name="minute" unicode="&#x2032;" horiz-adv-x="530" 
d="M370 1574l-43 -585h-124l-43 585h210z" />
    <glyph glyph-name="second" unicode="&#x2033;" horiz-adv-x="920" 
d="M756 1574l-43 -585h-120l-43 585h206zM370 1574l-43 -585h-120l-43 585h206z" />
    <glyph glyph-name="amacron" unicode="&#x101;" horiz-adv-x="1188" 
d="M852 269v328q-373 -17 -479.5 -82.5t-106.5 -180.5q0 -203 246 -203q167 0 340 138zM852 0v126q-141 -102 -232 -129.5t-185 -27.5q-151 0 -251 100t-100 254q0 197 148.5 296.5t619.5 118.5v34q0 118 -70 174.5t-246 56.5q-155 0 -345 -80h-8v183q187 51 360 51
q251 0 367.5 -93.5t116.5 -290.5v-773h-175zM980 1407h-792v142h792v-142z" />
    <glyph glyph-name="imacron" unicode="&#x12b;" horiz-adv-x="520" 
d="M348 0h-176v1130h176v-1130zM656 1407h-792v142h792v-142z" />
    <glyph glyph-name="umacron" unicode="&#x16b;" horiz-adv-x="1266" 
d="M1096 0h-176v136q-205 -167 -393 -167q-177 0 -271 109.5t-94 313.5v738h176v-635q0 -218 58.5 -289t190.5 -71q156 0 333 145v850h176v-1130zM1029 1407h-792v142h792v-142z" />
    <glyph glyph-name="emacron" unicode="&#x113;" horiz-adv-x="1182" 
d="M267 682h663q-8 337 -309 337q-152 0 -246 -90t-108 -247zM680 -26q-282 0 -437.5 152.5t-155.5 431.5q0 277 149 440.5t395 163.5q224 0 347.5 -134t123.5 -382v-97h-835q0 -204 110.5 -313.5t305.5 -109.5q194 0 388 135h8v-191q-241 -96 -399 -96zM1019 1407h-792v142
h792v-142z" />
    <glyph glyph-name="omacron" unicode="&#x14d;" horiz-adv-x="1216" 
d="M608 -31q-241 0 -381 159.5t-140 435.5t141 437t380 161t380 -160t141 -438t-140.5 -436.5t-380.5 -158.5zM608 1012q-163 0 -251 -115t-88 -333q0 -215 88 -330t251 -115t251 115t88 330q0 448 -339 448zM1004 1407h-792v142h792v-142z" />
    <glyph glyph-name="Amacron" unicode="&#x100;" horiz-adv-x="1388" 
d="M960 585l-271 743l-270 -743h541zM1171 0l-155 430h-654l-155 -430h-189l558 1507h237l557 -1507h-199zM1090 1767h-792v142h792v-142z" />
    <glyph glyph-name="Imacron" unicode="&#x12a;" horiz-adv-x="826" 
d="M703 0h-581v139h198v1229h-198v139h581v-139h-197v-1229h197v-139zM809 1767h-792v142h792v-142z" />
    <glyph glyph-name="Umacron" unicode="&#x16a;" horiz-adv-x="1493" 
d="M1325 598q0 -327 -149 -478t-430 -151q-578 0 -578 629v909h186v-926q0 -242 97 -348.5t295 -106.5q195 0 294 104.5t99 345.5v931h186v-909zM1143 1767h-792v142h792v-142z" />
    <glyph glyph-name="Emacron" unicode="&#x112;" horiz-adv-x="1265" 
d="M1166 0h-981v1507h981v-162h-795v-439h775v-162h-775v-582h795v-162zM1072 1767h-792v142h792v-142z" />
    <glyph glyph-name="Omacron" unicode="&#x14c;" horiz-adv-x="1561" 
d="M780 -31q-321 0 -504 207.5t-183 576.5q0 368 183.5 576.5t503.5 208.5q321 0 504.5 -208.5t183.5 -576.5q0 -367 -183.5 -575.5t-504.5 -208.5zM781 1379q-234 0 -364 -164t-130 -462t130 -461.5t364 -163.5q233 0 363 163.5t130 461.5q0 300 -130 463t-363 163z
M1177 1767h-792v142h792v-142z" />
    <glyph glyph-name="oneeighth" unicode="&#x215b;" horiz-adv-x="2212" 
d="M795 564h-567v118h206v600h-206v108q105 0 146.5 16t62 44.5t24.5 71.5h130v-840h204v-118zM1607 1518l-847 -1518h-154l847 1518h154zM1534 509q-153 77 -153 209q0 111 96 184t246 73q154 0 247.5 -68.5t93.5 -180.5q0 -150 -161 -222q187 -78 187 -233
q0 -126 -104.5 -209.5t-262.5 -83.5q-169 0 -269 80t-100 210q0 162 180 241zM1905 725q0 59 -49.5 96t-133.5 37q-80 0 -130 -35t-50 -93q0 -56 53 -98.5t203 -87.5q107 66 107 181zM1639 467q-122 -66 -122 -190q0 -80 58 -130.5t149 -50.5q92 0 146.5 44t54.5 121
q0 69 -47 107t-239 99z" />
    <glyph glyph-name="threeeighths" unicode="&#x215c;" horiz-adv-x="2212" 
d="M152 607v151h14q150 -82 292 -82q97 0 156 49t59 136q0 154 -216 154h-77v128h63q211 0 211 144q0 57 -47.5 87.5t-134.5 30.5q-130 0 -281 -80h-11v147q145 65 296 65q165 0 253.5 -65.5t88.5 -172.5q0 -73 -51.5 -132t-128.5 -80q198 -40 198 -237q0 -134 -104 -220
t-271 -86q-151 0 -309 63zM1607 1518l-847 -1518h-154l847 1518h154zM1534 509q-153 77 -153 209q0 111 96 184t246 73q154 0 247.5 -68.5t93.5 -180.5q0 -150 -161 -222q187 -78 187 -233q0 -126 -104.5 -209.5t-262.5 -83.5q-169 0 -269 80t-100 210q0 162 180 241z
M1905 725q0 59 -49.5 96t-133.5 37q-80 0 -130 -35t-50 -93q0 -56 53 -98.5t203 -87.5q107 66 107 181zM1639 467q-122 -66 -122 -190q0 -80 58 -130.5t149 -50.5q92 0 146.5 44t54.5 121q0 69 -47 107t-239 99z" />
    <glyph glyph-name="fiveeighths" unicode="&#x215d;" horiz-adv-x="2212" 
d="M166 605v149h15q143 -78 282 -78q99 0 158 52t59 144q0 164 -250 164q-71 0 -222 -28v510h628v-133h-472v-225q72 6 100 6q187 0 283.5 -77t96.5 -217q0 -144 -105 -236t-274 -92q-159 0 -299 61zM1607 1518l-847 -1518h-154l847 1518h154zM1534 509q-153 77 -153 209
q0 111 96 184t246 73q154 0 247.5 -68.5t93.5 -180.5q0 -150 -161 -222q187 -78 187 -233q0 -126 -104.5 -209.5t-262.5 -83.5q-169 0 -269 80t-100 210q0 162 180 241zM1905 725q0 59 -49.5 96t-133.5 37q-80 0 -130 -35t-50 -93q0 -56 53 -98.5t203 -87.5q107 66 107 181z
M1639 467q-122 -66 -122 -190q0 -80 58 -130.5t149 -50.5q92 0 146.5 44t54.5 121q0 69 -47 107t-239 99z" />
    <glyph glyph-name="seveneighths" unicode="&#x215e;" horiz-adv-x="2212" 
d="M884 1369l-454 -806h-174l474 822h-556v133h710v-149zM1587 1518l-847 -1518h-154l847 1518h154zM1534 509q-153 77 -153 209q0 111 96 184t246 73q154 0 247.5 -68.5t93.5 -180.5q0 -150 -161 -222q187 -78 187 -233q0 -126 -104.5 -209.5t-262.5 -83.5q-169 0 -269 80
t-100 210q0 162 180 241zM1905 725q0 59 -49.5 96t-133.5 37q-80 0 -130 -35t-50 -93q0 -56 53 -98.5t203 -87.5q107 66 107 181zM1639 467q-122 -66 -122 -190q0 -80 58 -130.5t149 -50.5q92 0 146.5 44t54.5 121q0 69 -47 107t-239 99z" />
    <glyph glyph-name="onethird" unicode="&#x2153;" horiz-adv-x="2212" 
d="M795 564h-567v118h206v600h-206v108q105 0 146.5 16t62 44.5t24.5 71.5h130v-840h204v-118zM1607 1518l-847 -1518h-154l847 1518h154zM1384 43v151h14q150 -82 292 -82q97 0 156 49t59 136q0 154 -216 154h-77v128h63q211 0 211 144q0 57 -47.5 87.5t-134.5 30.5
q-130 0 -281 -80h-11v147q145 65 296 65q165 0 253.5 -65.5t88.5 -172.5q0 -73 -51.5 -132t-128.5 -80q198 -40 198 -237q0 -134 -104 -220t-271 -86q-151 0 -309 63z" />
    <glyph glyph-name="twothirds" unicode="&#x2154;" horiz-adv-x="2212" 
d="M851 564h-703v144q306 246 401.5 350.5t95.5 203.5q0 143 -181 143q-124 0 -278 -80h-13v146q145 66 294 66q160 0 251 -72.5t91 -196.5q0 -114 -79.5 -221t-393.5 -351h515v-132zM1607 1518l-847 -1518h-154l847 1518h154zM1384 43v151h14q150 -82 292 -82q97 0 156 49
t59 136q0 154 -216 154h-77v128h63q211 0 211 144q0 57 -47.5 87.5t-134.5 30.5q-130 0 -281 -80h-11v147q145 65 296 65q165 0 253.5 -65.5t88.5 -172.5q0 -73 -51.5 -132t-128.5 -80q198 -40 198 -237q0 -134 -104 -220t-271 -86q-151 0 -309 63z" />
    <glyph glyph-name="uni2070" unicode="&#x2070;" horiz-adv-x="950" 
d="M491 544q-363 0 -363 497q0 496 363 496q362 0 362 -495q0 -498 -362 -498zM491 1410q-104 0 -151 -75.5t-47 -293.5q0 -214 47 -291.5t151 -77.5t151 77t47 293q0 211 -46.5 289.5t-151.5 78.5z" />
    <glyph glyph-name="uni2074" unicode="&#x2074;" horiz-adv-x="950" 
d="M874 829h-147v-267h-155v267h-479v152l494 538h140v-565h147v-125zM572 954v368l-338 -368h338z" />
    <glyph glyph-name="uni2075" unicode="&#x2075;" horiz-adv-x="950" 
d="M166 605v149h15q143 -78 282 -78q99 0 158 52t59 144q0 164 -250 164q-71 0 -222 -28v510h628v-133h-472v-225q72 6 100 6q187 0 283.5 -77t96.5 -217q0 -144 -105 -236t-274 -92q-159 0 -299 61z" />
    <glyph glyph-name="uni2076" unicode="&#x2076;" horiz-adv-x="950" 
d="M770 1516v-138h-10q-75 25 -146 25q-268 0 -313 -275q113 54 221 54q153 0 248.5 -78.5t95.5 -225.5q0 -145 -104 -239.5t-256 -94.5q-176 0 -275 113.5t-99 326.5q0 262 130.5 406.5t371.5 144.5q74 0 136 -19zM296 1008q-2 -40 -2 -51q0 -137 57 -212t157 -75
q91 0 142.5 53.5t51.5 149.5q0 79 -45 130t-167 51q-100 0 -194 -46z" />
    <glyph glyph-name="uni2077" unicode="&#x2077;" horiz-adv-x="950" 
d="M854 1369l-454 -806h-174l474 822h-556v133h710v-149z" />
    <glyph glyph-name="uni2078" unicode="&#x2078;" horiz-adv-x="950" 
d="M302 1073q-153 77 -153 209q0 111 96 184t246 73q154 0 247.5 -68.5t93.5 -180.5q0 -150 -161 -222q187 -78 187 -233q0 -126 -104.5 -209.5t-262.5 -83.5q-169 0 -269 80t-100 210q0 162 180 241zM673 1289q0 59 -49.5 96t-133.5 37q-80 0 -130 -35t-50 -93
q0 -56 53 -98.5t203 -87.5q107 66 107 181zM407 1031q-122 -66 -122 -190q0 -80 58 -130.5t149 -50.5q92 0 146.5 44t54.5 121q0 69 -47 107t-239 99z" />
    <glyph glyph-name="uni2079" unicode="&#x2079;" horiz-adv-x="950" 
d="M212 565v138h11q68 -25 145 -25q275 0 315 278q-116 -58 -223 -58q-158 0 -250.5 81t-92.5 225q0 145 103 239t256 94q174 0 274 -111t100 -329q0 -262 -130 -406.5t-372 -144.5q-73 0 -136 19zM689 1124q0 287 -214 287q-90 0 -142.5 -54t-52.5 -148q0 -77 45.5 -130.5
t166.5 -53.5q94 0 195 50q2 36 2 49z" />
    <glyph glyph-name="uni2080" unicode="&#x2080;" horiz-adv-x="950" 
d="M491 -20q-363 0 -363 497q0 496 363 496q362 0 362 -495q0 -498 -362 -498zM491 846q-104 0 -151 -75.5t-47 -293.5q0 -214 47 -291.5t151 -77.5t151 77t47 293q0 211 -46.5 289.5t-151.5 78.5z" />
    <glyph glyph-name="uni2081" unicode="&#x2081;" horiz-adv-x="950" 
d="M795 0h-567v118h206v600h-206v108q105 0 146.5 16t62 44.5t24.5 71.5h130v-840h204v-118z" />
    <glyph glyph-name="uni2082" unicode="&#x2082;" horiz-adv-x="950" 
d="M851 0h-703v144q306 246 401.5 350.5t95.5 203.5q0 143 -181 143q-124 0 -278 -80h-13v146q145 66 294 66q160 0 251 -72.5t91 -196.5q0 -114 -79.5 -221t-393.5 -351h515v-132z" />
    <glyph glyph-name="uni2083" unicode="&#x2083;" horiz-adv-x="950" 
d="M152 43v151h14q150 -82 292 -82q97 0 156 49t59 136q0 154 -216 154h-77v128h63q211 0 211 144q0 57 -47.5 87.5t-134.5 30.5q-130 0 -281 -80h-11v147q145 65 296 65q165 0 253.5 -65.5t88.5 -172.5q0 -73 -51.5 -132t-128.5 -80q198 -40 198 -237q0 -134 -104 -220
t-271 -86q-151 0 -309 63z" />
    <glyph glyph-name="uni2084" unicode="&#x2084;" horiz-adv-x="950" 
d="M874 265h-147v-267h-155v267h-479v152l494 538h140v-565h147v-125zM572 390v368l-338 -368h338z" />
    <glyph glyph-name="uni2085" unicode="&#x2085;" horiz-adv-x="950" 
d="M166 41v149h15q143 -78 282 -78q99 0 158 52t59 144q0 164 -250 164q-71 0 -222 -28v510h628v-133h-472v-225q72 6 100 6q187 0 283.5 -77t96.5 -217q0 -144 -105 -236t-274 -92q-159 0 -299 61z" />
    <glyph glyph-name="uni2086" unicode="&#x2086;" horiz-adv-x="950" 
d="M770 952v-138h-10q-75 25 -146 25q-268 0 -313 -275q113 54 221 54q153 0 248.5 -78.5t95.5 -225.5q0 -145 -104 -239.5t-256 -94.5q-176 0 -275 113.5t-99 326.5q0 262 130.5 406.5t371.5 144.5q74 0 136 -19zM296 444q-2 -40 -2 -51q0 -137 57 -212t157 -75
q91 0 142.5 53.5t51.5 149.5q0 79 -45 130t-167 51q-100 0 -194 -46z" />
    <glyph glyph-name="uni2087" unicode="&#x2087;" horiz-adv-x="950" 
d="M854 805l-454 -806h-174l474 822h-556v133h710v-149z" />
    <glyph glyph-name="uni2088" unicode="&#x2088;" horiz-adv-x="950" 
d="M302 509q-153 77 -153 209q0 111 96 184t246 73q154 0 247.5 -68.5t93.5 -180.5q0 -150 -161 -222q187 -78 187 -233q0 -126 -104.5 -209.5t-262.5 -83.5q-169 0 -269 80t-100 210q0 162 180 241zM673 725q0 59 -49.5 96t-133.5 37q-80 0 -130 -35t-50 -93
q0 -56 53 -98.5t203 -87.5q107 66 107 181zM407 467q-122 -66 -122 -190q0 -80 58 -130.5t149 -50.5q92 0 146.5 44t54.5 121q0 69 -47 107t-239 99z" />
    <glyph glyph-name="uni2089" unicode="&#x2089;" horiz-adv-x="950" 
d="M212 1v138h11q68 -25 145 -25q275 0 315 278q-116 -58 -223 -58q-158 0 -250.5 81t-92.5 225q0 145 103 239t256 94q174 0 274 -111t100 -329q0 -262 -130 -406.5t-372 -144.5q-73 0 -136 19zM689 560q0 287 -214 287q-90 0 -142.5 -54t-52.5 -148q0 -77 45.5 -130.5
t166.5 -53.5q94 0 195 50q2 36 2 49z" />
    <glyph glyph-name="uni01CD" unicode="&#x1cd;" horiz-adv-x="1388" 
d="M960 585l-271 743l-270 -743h541zM1171 0l-155 430h-654l-155 -430h-189l558 1507h237l557 -1507h-199zM1032 2066l-232 -379h-213l-232 379h147l194 -262l193 262h143z" />
    <glyph glyph-name="Ecaron" unicode="&#x11a;" horiz-adv-x="1265" 
d="M1166 0h-981v1507h981v-162h-795v-439h775v-162h-775v-582h795v-162zM1009 2066l-232 -379h-213l-232 379h147l194 -262l193 262h143z" />
    <glyph glyph-name="glyph275" horiz-adv-x="1265" 
d="M1166 0h-981v1507h981v-162h-795v-439h775v-162h-775v-582h795v-162zM970 1899q0 -118 -82.5 -195t-211.5 -77t-211.5 76.5t-82.5 195.5q0 118 82.5 195t211.5 77q130 0 212 -77t82 -195zM837 1899q0 74 -45 122.5t-116 48.5t-116 -48.5t-45 -122.5q0 -75 45 -123
t116 -48t116 48.5t45 122.5z" />
    <glyph glyph-name="uni1EBC" unicode="&#x1ebc;" horiz-adv-x="1265" 
d="M1166 0h-981v1507h981v-162h-795v-439h775v-162h-775v-582h795v-162zM1073 2008q-9 -143 -74.5 -223t-168.5 -80q-91 0 -181 78q-70 61 -93.5 76t-53.5 15q-98 0 -109 -174h-121q9 143 75 223t168 80q100 0 180 -77q96 -92 148 -92q99 0 109 174h121z" />
    <glyph glyph-name="uni01CF" unicode="&#x1cf;" horiz-adv-x="826" 
d="M703 0h-581v139h198v1229h-198v139h581v-139h-197v-1229h197v-139zM752 2066l-232 -379h-213l-232 379h147l194 -262l193 262h143z" />
    <glyph glyph-name="glyph278" horiz-adv-x="826" 
d="M703 0h-581v139h198v1229h-198v139h581v-139h-197v-1229h197v-139zM707 1899q0 -118 -82.5 -195t-211.5 -77t-211.5 76.5t-82.5 195.5q0 118 82.5 195t211.5 77q130 0 212 -77t82 -195zM574 1899q0 74 -45 122.5t-116 48.5t-116 -48.5t-45 -122.5q0 -75 45 -123t116 -48
t116 48.5t45 122.5z" />
    <glyph glyph-name="Itilde" unicode="&#x128;" horiz-adv-x="826" 
d="M703 0h-581v139h198v1229h-198v139h581v-139h-197v-1229h197v-139zM813 2008q-9 -143 -74.5 -223t-168.5 -80q-91 0 -181 78q-70 61 -93.5 76t-53.5 15q-98 0 -109 -174h-121q9 143 75 223t168 80q100 0 180 -77q96 -92 148 -92q99 0 109 174h121z" />
    <glyph glyph-name="uni01D1" unicode="&#x1d1;" horiz-adv-x="1561" 
d="M780 -31q-321 0 -504 207.5t-183 576.5q0 368 183.5 576.5t503.5 208.5q321 0 504.5 -208.5t183.5 -576.5q0 -367 -183.5 -575.5t-504.5 -208.5zM781 1379q-234 0 -364 -164t-130 -462t130 -461.5t364 -163.5q233 0 363 163.5t130 461.5q0 300 -130 463t-363 163z
M1119 2066l-232 -379h-213l-232 379h147l194 -262l193 262h143z" />
    <glyph glyph-name="glyph281" horiz-adv-x="1561" 
d="M780 -31q-321 0 -504 207.5t-183 576.5q0 368 183.5 576.5t503.5 208.5q321 0 504.5 -208.5t183.5 -576.5q0 -367 -183.5 -575.5t-504.5 -208.5zM781 1379q-234 0 -364 -164t-130 -462t130 -461.5t364 -163.5q233 0 363 163.5t130 461.5q0 300 -130 463t-363 163z
M1075 1899q0 -118 -82.5 -195t-211.5 -77t-211.5 76.5t-82.5 195.5q0 118 82.5 195t211.5 77q130 0 212 -77t82 -195zM942 1899q0 74 -45 122.5t-116 48.5t-116 -48.5t-45 -122.5q0 -75 45 -123t116 -48t116 48.5t45 122.5z" />
    <glyph glyph-name="uni01D3" unicode="&#x1d3;" horiz-adv-x="1493" 
d="M1325 598q0 -327 -149 -478t-430 -151q-578 0 -578 629v909h186v-926q0 -242 97 -348.5t295 -106.5q195 0 294 104.5t99 345.5v931h186v-909zM1085 2066l-232 -379h-213l-232 379h147l194 -262l193 262h143z" />
    <glyph glyph-name="Uring" unicode="&#x16e;" horiz-adv-x="1493" 
d="M1325 598q0 -327 -149 -478t-430 -151q-578 0 -578 629v909h186v-926q0 -242 97 -348.5t295 -106.5q195 0 294 104.5t99 345.5v931h186v-909zM1041 1899q0 -118 -82.5 -195t-211.5 -77t-211.5 76.5t-82.5 195.5q0 118 82.5 195t211.5 77q130 0 212 -77t82 -195zM908 1899
q0 74 -45 122.5t-116 48.5t-116 -48.5t-45 -122.5q0 -75 45 -123t116 -48t116 48.5t45 122.5z" />
    <glyph glyph-name="Utilde" unicode="&#x168;" horiz-adv-x="1493" 
d="M1325 598q0 -327 -149 -478t-430 -151q-578 0 -578 629v909h186v-926q0 -242 97 -348.5t295 -106.5q195 0 294 104.5t99 345.5v931h186v-909zM1147 2008q-9 -143 -74.5 -223t-168.5 -80q-91 0 -181 78q-70 61 -93.5 76t-53.5 15q-98 0 -109 -174h-121q9 143 75 223
t168 80q100 0 180 -77q96 -92 148 -92q99 0 109 174h121z" />
    <glyph glyph-name="uni01CE" unicode="&#x1ce;" horiz-adv-x="1188" 
d="M852 269v328q-373 -17 -479.5 -82.5t-106.5 -180.5q0 -203 246 -203q167 0 340 138zM852 0v126q-141 -102 -232 -129.5t-185 -27.5q-151 0 -251 100t-100 254q0 197 148.5 296.5t619.5 118.5v34q0 118 -70 174.5t-246 56.5q-155 0 -345 -80h-8v183q187 51 360 51
q251 0 367.5 -93.5t116.5 -290.5v-773h-175zM915 1690l-232 -379h-213l-232 379h147l194 -262l193 262h143z" />
    <glyph glyph-name="ecaron" unicode="&#x11b;" horiz-adv-x="1182" 
d="M267 682h663q-8 337 -309 337q-152 0 -246 -90t-108 -247zM680 -26q-282 0 -437.5 152.5t-155.5 431.5q0 277 149 440.5t395 163.5q224 0 347.5 -134t123.5 -382v-97h-835q0 -204 110.5 -313.5t305.5 -109.5q194 0 388 135h8v-191q-241 -96 -399 -96zM930 1690l-232 -379
h-213l-232 379h147l194 -262l193 262h143z" />
    <glyph glyph-name="glyph287" horiz-adv-x="1182" 
d="M267 682h663q-8 337 -309 337q-152 0 -246 -90t-108 -247zM680 -26q-282 0 -437.5 152.5t-155.5 431.5q0 277 149 440.5t395 163.5q224 0 347.5 -134t123.5 -382v-97h-835q0 -204 110.5 -313.5t305.5 -109.5q194 0 388 135h8v-191q-241 -96 -399 -96zM909 1570
q0 -118 -82.5 -195t-211.5 -77t-211.5 76.5t-82.5 195.5q0 118 82.5 195t211.5 77q130 0 212 -77t82 -195zM776 1570q0 74 -45 122.5t-116 48.5t-116 -48.5t-45 -122.5q0 -75 45 -123t116 -48t116 48.5t45 122.5z" />
    <glyph glyph-name="uni1EBD" unicode="&#x1ebd;" horiz-adv-x="1182" 
d="M267 682h663q-8 337 -309 337q-152 0 -246 -90t-108 -247zM680 -26q-282 0 -437.5 152.5t-155.5 431.5q0 277 149 440.5t395 163.5q224 0 347.5 -134t123.5 -382v-97h-835q0 -204 110.5 -313.5t305.5 -109.5q194 0 388 135h8v-191q-241 -96 -399 -96zM1010 1632
q-9 -143 -74.5 -223t-168.5 -80q-91 0 -181 78q-70 61 -93.5 76t-53.5 15q-98 0 -109 -174h-121q9 143 75 223t168 80q100 0 180 -77q96 -92 148 -92q99 0 109 174h121z" />
    <glyph glyph-name="uni01D0" unicode="&#x1d0;" horiz-adv-x="520" 
d="M348 0h-176v1130h176v-1130zM599 1690l-232 -379h-213l-232 379h147l194 -262l193 262h143z" />
    <glyph glyph-name="glyph290" horiz-adv-x="520" 
d="M348 0h-176v1130h176v-1130zM554 1570q0 -118 -82.5 -195t-211.5 -77t-211.5 76.5t-82.5 195.5q0 118 82.5 195t211.5 77q130 0 212 -77t82 -195zM421 1570q0 74 -45 122.5t-116 48.5t-116 -48.5t-45 -122.5q0 -75 45 -123t116 -48t116 48.5t45 122.5z" />
    <glyph glyph-name="itilde" unicode="&#x129;" horiz-adv-x="520" 
d="M348 0h-176v1130h176v-1130zM661 1632q-9 -143 -74.5 -223t-168.5 -80q-91 0 -181 78q-70 61 -93.5 76t-53.5 15q-98 0 -109 -174h-121q9 143 75 223t168 80q100 0 180 -77q96 -92 148 -92q99 0 109 174h121z" />
    <glyph glyph-name="uni01D2" unicode="&#x1d2;" horiz-adv-x="1216" 
d="M608 -31q-241 0 -381 159.5t-140 435.5t141 437t380 161t380 -160t141 -438t-140.5 -436.5t-380.5 -158.5zM608 1012q-163 0 -251 -115t-88 -333q0 -215 88 -330t251 -115t251 115t88 330q0 448 -339 448zM947 1690l-232 -379h-213l-232 379h147l194 -262l193 262h143z
" />
    <glyph glyph-name="glyph293" horiz-adv-x="1216" 
d="M608 -31q-241 0 -381 159.5t-140 435.5t141 437t380 161t380 -160t141 -438t-140.5 -436.5t-380.5 -158.5zM608 1012q-163 0 -251 -115t-88 -333q0 -215 88 -330t251 -115t251 115t88 330q0 448 -339 448zM902 1570q0 -118 -82.5 -195t-211.5 -77t-211.5 76.5
t-82.5 195.5q0 118 82.5 195t211.5 77q130 0 212 -77t82 -195zM769 1570q0 74 -45 122.5t-116 48.5t-116 -48.5t-45 -122.5q0 -75 45 -123t116 -48t116 48.5t45 122.5z" />
    <glyph glyph-name="uni01D4" unicode="&#x1d4;" horiz-adv-x="1266" 
d="M1096 0h-176v136q-205 -167 -393 -167q-177 0 -271 109.5t-94 313.5v738h176v-635q0 -218 58.5 -289t190.5 -71q156 0 333 145v850h176v-1130zM972 1690l-232 -379h-213l-232 379h147l194 -262l193 262h143z" />
    <glyph glyph-name="uring" unicode="&#x16f;" horiz-adv-x="1266" 
d="M1096 0h-176v136q-205 -167 -393 -167q-177 0 -271 109.5t-94 313.5v738h176v-635q0 -218 58.5 -289t190.5 -71q156 0 333 145v850h176v-1130zM927 1570q0 -118 -82.5 -195t-211.5 -77t-211.5 76.5t-82.5 195.5q0 118 82.5 195t211.5 77q130 0 212 -77t82 -195zM794 1570
q0 74 -45 122.5t-116 48.5t-116 -48.5t-45 -122.5q0 -75 45 -123t116 -48t116 48.5t45 122.5z" />
    <glyph glyph-name="utilde" unicode="&#x169;" horiz-adv-x="1266" 
d="M1096 0h-176v136q-205 -167 -393 -167q-177 0 -271 109.5t-94 313.5v738h176v-635q0 -218 58.5 -289t190.5 -71q156 0 333 145v850h176v-1130zM1033 1632q-9 -143 -74.5 -223t-168.5 -80q-91 0 -181 78q-70 61 -93.5 76t-53.5 15q-98 0 -109 -174h-121q9 143 75 223
t168 80q100 0 180 -77q96 -92 148 -92q99 0 109 174h121z" />
    <glyph glyph-name="uni0251" unicode="&#x251;" horiz-adv-x="1246" 
d="M1265 -8q-53 -23 -126 -23q-168 0 -223 164h-6q-185 -164 -386 -164q-200 0 -318.5 157t-118.5 429q0 271 140 439t349 168q155 0 315 -96v64h176v-803q0 -205 115 -205q45 0 77 16h6v-146zM891 268v661q-147 76 -277 76q-165 0 -255 -115.5t-90 -328.5q0 -426 305 -426
q172 0 317 133z" />
    <glyph glyph-name="uni1F71" unicode="&#x1f71;" horiz-adv-x="1246" 
d="M1265 -8q-53 -23 -126 -23q-168 0 -223 164h-6q-185 -164 -386 -164q-200 0 -318.5 157t-118.5 429q0 271 140 439t349 168q155 0 315 -96v64h176v-803q0 -205 115 -205q45 0 77 16h6v-146zM891 268v661q-147 76 -277 76q-165 0 -255 -115.5t-90 -328.5q0 -426 305 -426
q172 0 317 133zM934 1690l-277 -374h-136l182 374h231z" />
    <glyph glyph-name="uni1F70" unicode="&#x1f70;" horiz-adv-x="1246" 
d="M1265 -8q-53 -23 -126 -23q-168 0 -223 164h-6q-185 -164 -386 -164q-200 0 -318.5 157t-118.5 429q0 271 140 439t349 168q155 0 315 -96v64h176v-803q0 -205 115 -205q45 0 77 16h6v-146zM891 268v661q-147 76 -277 76q-165 0 -255 -115.5t-90 -328.5q0 -426 305 -426
q172 0 317 133zM700 1316h-136l-277 374h231z" />
    <glyph glyph-name="aeacute" unicode="&#x1fd;" horiz-adv-x="1916" 
d="M1835 573h-825q0 -447 401 -447q215 0 389 135h12v-192q-242 -95 -397 -95q-321 0 -475 209q-238 -212 -490 -212q-157 0 -261.5 98t-104.5 248q0 200 156 295t608 97v69q0 116 -68.5 172t-233.5 56q-159 0 -355 -83h-9v183q190 54 362 54q308 0 426 -189
q162 191 397 191q223 0 345.5 -132.5t122.5 -380.5v-76zM1666 706q-24 313 -305 313q-142 0 -234 -84t-115 -229h654zM882 296q-43 120 -43 277q-287 -11 -382 -34.5t-143 -76t-48 -131.5q0 -199 249 -199q200 0 367 164zM1264 1690l-277 -374h-136l182 374h231z" />
    <glyph glyph-name="uni0254" unicode="&#x254;" horiz-adv-x="1038" 
d="M47 67v196h8q188 -137 349 -137q173 0 269 115t96 328t-95.5 325t-269.5 112q-166 0 -349 -135h-8v192q203 95 354 95q261 0 405.5 -153t144.5 -436q0 -277 -149 -436t-402 -159q-167 0 -353 93z" />
    <glyph glyph-name="uni0259" unicode="&#x259;" horiz-adv-x="1182" 
d="M80 587h835q0 204 -110.5 313.5t-305.5 109.5q-217 0 -388 -122h-8v171q216 103 402 103q280 0 435 -152.5t155 -431.5q0 -277 -149 -440.5t-395 -163.5q-223 0 -347 134t-124 382v97zM915 454h-663q8 -337 309 -337q152 0 246 90t108 247z" />
    <glyph glyph-name="uni025A" unicode="&#x25a;" horiz-adv-x="1501" 
d="M1501 470q-60 -27 -127 -27q-190 0 -244 197l-39 -9q2 -32 2 -55q0 -277 -148 -439.5t-394 -162.5q-223 0 -347 134t-124 382v86l810 167q-83 267 -391 267q-217 0 -388 -122h-8v171q216 103 402 103q219 0 365 -99t197 -284l176 36l12 -74q25 -155 138 -155q54 0 102 24
h6v-140zM915 595l-663 -136q8 -342 309 -342q174 0 264.5 112.5t90.5 320.5q0 29 -1 45z" />
    <glyph glyph-name="uni025B" unicode="&#x25b;" horiz-adv-x="1031" 
d="M987 70q-215 -96 -428 -96q-206 0 -337.5 88t-131.5 248q0 207 234 281v7q-92 24 -145.5 91.5t-53.5 159.5q0 147 133 228t332 81q153 0 352 -63v-190h-8q-152 102 -373 102q-256 0 -256 -170q0 -61 28 -101t84 -56.5t200 -16.5h117v-148h-165q-180 0 -239.5 -49.5
t-59.5 -142.5q0 -197 292 -197q236 0 417 134h8v-190z" />
    <glyph glyph-name="uni1F73" unicode="&#x1f73;" horiz-adv-x="1031" 
d="M987 70q-215 -96 -428 -96q-206 0 -337.5 88t-131.5 248q0 207 234 281v7q-92 24 -145.5 91.5t-53.5 159.5q0 147 133 228t332 81q153 0 352 -63v-190h-8q-152 102 -373 102q-256 0 -256 -170q0 -61 28 -101t84 -56.5t200 -16.5h117v-148h-165q-180 0 -239.5 -49.5
t-59.5 -142.5q0 -197 292 -197q236 0 417 134h8v-190zM864 1690l-277 -374h-136l182 374h231z" />
    <glyph glyph-name="uni1F72" unicode="&#x1f72;" horiz-adv-x="1031" 
d="M987 70q-215 -96 -428 -96q-206 0 -337.5 88t-131.5 248q0 207 234 281v7q-92 24 -145.5 91.5t-53.5 159.5q0 147 133 228t332 81q153 0 352 -63v-190h-8q-152 102 -373 102q-256 0 -256 -170q0 -61 28 -101t84 -56.5t200 -16.5h117v-148h-165q-180 0 -239.5 -49.5
t-59.5 -142.5q0 -197 292 -197q236 0 417 134h8v-190zM650 1316h-136l-277 374h231z" />
    <glyph glyph-name="glyph314" horiz-adv-x="673" 
d="M503 -22q0 -188 -99.5 -294.5t-271.5 -106.5q-109 0 -212 28v166h10q99 -39 182 -39q113 0 164 60t51 254v939h-247v145h423v-1152z" />
    <glyph glyph-name="eng" unicode="&#x14b;" horiz-adv-x="1266" 
d="M1104 0q0 -205 -95.5 -314t-272.5 -109q-94 0 -186 28v159h10q71 -32 163 -32q108 0 156.5 67t48.5 231v603q0 220 -58 291.5t-191 71.5q-157 0 -333 -146v-850h-176v1130h176v-136q199 168 393 168q175 0 270 -109.5t95 -316.5v-736z" />
    <glyph glyph-name="uni0275" unicode="&#x275;" horiz-adv-x="1216" 
d="M608 -31q-241 0 -381 159.5t-140 435.5t141 437t380 161t380 -160t141 -438t-140.5 -436.5t-380.5 -158.5zM944 635q-28 377 -336 377q-307 0 -336 -377h672zM945 496h-674q28 -377 337 -377t337 377z" />
    <glyph glyph-name="uni028C" unicode="&#x28c;" horiz-adv-x="1159" 
d="M1127 0h-191l-363 882l-358 -882h-184l481 1130h137z" />
    <glyph glyph-name="uni0292" unicode="&#x292;" horiz-adv-x="969" 
d="M20 -352v177h6q157 -103 334 -103q170 0 269.5 91t99.5 244q0 152 -110 242t-298 90h-65v95l385 502h-608v144h814v-121l-376 -484q202 -30 320 -152.5t118 -308.5q0 -214 -157.5 -353t-401.5 -139q-163 0 -330 76z" />
    <glyph glyph-name="uni0283" unicode="&#x283;" horiz-adv-x="768" 
d="M852 1398h-10q-71 32 -163 32q-108 0 -156.5 -67t-48.5 -231v-1122q0 -207 -96.5 -320t-271.5 -113q-94 0 -186 28v159h10q71 -32 163 -32q108 0 156.5 67t48.5 231v1122q0 207 96.5 320t271.5 113q95 0 186 -28v-159z" />
    <glyph glyph-name="uni02D0" unicode="&#x2d0;" horiz-adv-x="880" 
d="M585 1130l-145 -353l-145 353h290zM585 0h-290l145 353z" />
    <glyph glyph-name="uni00A0.ital" horiz-adv-x="696" 
 />
    <glyph glyph-name="exclam.ital" horiz-adv-x="776" 
d="M713 1507l-281 -1097h-158l225 1097h214zM409 211l-49 -211h-206l49 211h206z" />
    <glyph glyph-name="quotedbl.ital" horiz-adv-x="920" 
d="M981 1574l-184 -585h-122l98 585h208zM595 1574l-184 -585h-122l98 585h208z" />
    <glyph glyph-name="numbersign.ital" horiz-adv-x="1646" 
d="M1564 1058l-28 -123h-335l-149 -364h318l-28 -123h-340l-184 -448h-117l184 448h-282l-184 -448h-117l184 448h-313l28 123h335l149 364h-318l28 123h341l184 449h117l-184 -449h282l184 449h117l-184 -449h312zM1088 937h-287l-151 -368h287z" />
    <glyph glyph-name="dollar.ital" horiz-adv-x="1272" 
d="M1214 1213l-40 -172h-7q-153 121 -320 148l-107 -463q224 -48 301 -124.5t77 -186.5q0 -178 -150 -299t-397 -121l-83 -361h-106l84 366q-229 22 -412 123l40 173h7q150 -134 395 -167l108 467q-218 44 -305.5 122t-87.5 196q0 176 143.5 293.5t417.5 117.5l58 251h106
l-60 -260q173 -23 338 -103zM743 1200q-175 0 -262.5 -67.5t-87.5 -183.5q0 -74 55 -119.5t191 -82.5zM705 575l-104 -452q159 0 246 68t87 190q0 134 -229 194zM509 -31zM867 1538z" />
    <glyph glyph-name="percent.ital" horiz-adv-x="2106" 
d="M523 642q-323 0 -323 314q0 219 106.5 400t332.5 181q325 0 325 -315q0 -220 -107 -400t-334 -180zM629 1423q-147 0 -206.5 -167t-59.5 -311q0 -189 169 -189q149 0 209 166.5t60 313.5q0 187 -172 187zM1777 1518l-1198 -1518h-154l1198 1518h154zM1554 -30
q-325 0 -325 315q0 220 107 400t334 180q323 0 323 -314q0 -219 -106.5 -400t-332.5 -181zM1661 751q-149 0 -209 -166.5t-60 -313.5q0 -187 172 -187q147 0 206.5 167t59.5 311q0 189 -169 189z" />
    <glyph glyph-name="ampersand.ital" horiz-adv-x="1431" 
d="M1407 0h-223l-165 205q-227 -236 -505 -236q-185 0 -306 106t-121 273q0 337 362 517q-93 76 -127.5 138.5t-34.5 139.5q0 161 126.5 278t324.5 117q160 0 263 -80.5t103 -202.5q0 -308 -382 -413l326 -397q70 120 117 444h186l-17 -101q-41 -243 -200 -449zM650 918
q128 35 197.5 125t69.5 196q0 85 -54 135.5t-137 50.5q-106 0 -178.5 -75t-72.5 -183q0 -125 175 -249zM945 295l-409 501q-105 -47 -179.5 -156t-74.5 -246q0 -130 79.5 -205.5t221.5 -75.5q205 0 362 182z" />
    <glyph glyph-name="quotesingle.ital" horiz-adv-x="530" 
d="M596 1574l-184 -585h-126l98 585h212z" />
    <glyph glyph-name="parenleft.ital" horiz-adv-x="900" 
d="M989 1564q-691 -509 -691 -1258q0 -458 231 -713v-10h-198q-200 320 -200 679q0 376 144 685t486 627h228v-10z" />
    <glyph glyph-name="parenright.ital" horiz-adv-x="900" 
d="M124 -417h-228v10q691 510 691 1258q0 458 -231 713v10h198q200 -319 200 -679q0 -376 -144 -685t-486 -627z" />
    <glyph glyph-name="asterisk.ital" horiz-adv-x="1272" 
d="M1255 1195l-421 -114l328 -292l-78 -84l-307 296l-77 -360l-114 26l89 358l-406 -132l-34 109l424 117l-331 291l79 83l309 -293l75 357l114 -26l-89 -354l406 127z" />
    <glyph glyph-name="plus.ital" horiz-adv-x="1646" 
d="M1477 588h-554v-554h-148v554h-554v142h554v554h148v-554h554v-142z" />
    <glyph glyph-name="comma.ital" horiz-adv-x="715" 
d="M487 273l-431 -643h-136l325 643h242z" />
    <glyph glyph-name="figuredash.ital" horiz-adv-x="900" 
d="M802 740l-37 -162h-624l37 162h624z" />
    <glyph glyph-name="period.ital" horiz-adv-x="715" 
d="M404 273l-63 -273h-229l63 273h229z" />
    <glyph glyph-name="slash.ital" horiz-adv-x="920" 
d="M1035 1574l-1058 -1878h-161l1055 1878h164z" />
    <glyph glyph-name="zero.ital" horiz-adv-x="1272" 
d="M543 -31q-428 0 -428 467q0 250 85 536t231.5 425.5t362.5 139.5q425 0 425 -471q0 -252 -85 -536.5t-230.5 -422.5t-360.5 -138zM778 1391q-147 0 -244 -110.5t-165.5 -387t-68.5 -471.5q0 -307 258 -307q145 0 242.5 109.5t165.5 383.5t68 478q0 305 -256 305z" />
    <glyph glyph-name="one.ital" horiz-adv-x="1272" 
d="M980 1512l-320 -1381h308l-29 -131h-804l29 131h314l243 1050h-313l26 115q184 1 274.5 52.5t127.5 163.5h144z" />
    <glyph glyph-name="two.ital" horiz-adv-x="1272" 
d="M218 155h821l-36 -155h-1008l44 191q565 392 760 584t195 374q0 108 -79 172t-208 64q-184 0 -406 -114h-11l44 192q194 75 395 75q212 0 336 -97t124 -264q0 -141 -69.5 -269.5t-269.5 -298t-632 -454.5z" />
    <glyph glyph-name="three.ital" horiz-adv-x="1272" 
d="M844 826l-3 -16q271 -63 271 -312q0 -226 -170.5 -377.5t-421.5 -151.5q-238 0 -466 127l42 184h15q176 -157 418 -157q172 0 281 107t109 280q0 233 -310 233h-97l34 146h68q180 0 287.5 77t107.5 208q0 99 -81.5 155t-214.5 56q-192 0 -403 -111h-12l43 190
q191 74 392 74q215 0 340.5 -88t125.5 -236q0 -147 -102.5 -256.5t-252.5 -131.5z" />
    <glyph glyph-name="four.ital" horiz-adv-x="1272" 
d="M1189 578l-33 -144h-221l-100 -434h-181l100 434h-726l48 210l933 863h173l-214 -929h221zM950 1283l-763 -705h600z" />
    <glyph glyph-name="five.ital" horiz-adv-x="1272" 
d="M1322 1507l-35 -155h-715l-97 -428q123 6 130 6q240 0 381.5 -105t141.5 -289q0 -241 -168.5 -404t-430.5 -163q-239 0 -461 122l43 181h15q186 -149 412 -149q174 0 284.5 107.5t110.5 266.5q0 283 -403 283q-87 0 -276 -32l173 759h895z" />
    <glyph glyph-name="six.ital" horiz-adv-x="1272" 
d="M1205 1499l-38 -166h-12q-81 50 -212 50q-205 0 -358.5 -140.5t-218.5 -385.5q202 101 360 101q204 0 326 -108t122 -294q0 -246 -169 -416.5t-417 -170.5q-217 0 -341 135.5t-124 375.5q0 222 91 479.5t287 416.5t477 159q139 0 227 -36zM343 733q-31 -134 -31 -257
q0 -175 77 -269t217 -94q166 0 270.5 119.5t104.5 298.5q0 134 -87 208.5t-238 74.5q-136 0 -313 -81z" />
    <glyph glyph-name="seven.ital" horiz-adv-x="1272" 
d="M1350 1507l-46 -202l-958 -1305h-208l1002 1352h-849l35 155h1024z" />
    <glyph glyph-name="eight.ital" horiz-adv-x="1272" 
d="M917 786l-2 -4q242 -121 242 -322q0 -202 -166 -348t-411 -146q-225 0 -360 109t-135 286q0 153 96.5 273.5t267.5 181.5l2 3q-196 123 -196 291q0 186 152.5 308.5t379.5 122.5q204 0 331.5 -95.5t127.5 -248.5q0 -130 -88 -242t-241 -169zM1058 1183q0 103 -77.5 166.5
t-209.5 63.5q-138 0 -231.5 -75t-93.5 -189q0 -108 106.5 -183t263.5 -133q242 129 242 350zM554 771q-277 -126 -277 -390q0 -129 87.5 -207t229.5 -78q165 0 268.5 95t103.5 242q0 71 -60.5 143t-351.5 195z" />
    <glyph glyph-name="nine.ital" horiz-adv-x="1272" 
d="M116 7l41 166h12q82 -50 212 -50q205 0 361 140.5t225 385.5q-205 -101 -362 -101q-201 0 -321 105.5t-120 286.5q0 250 172 423.5t422 173.5q214 0 336 -131.5t122 -363.5q0 -213 -92.5 -479t-292 -429t-487.5 -163q-139 0 -228 36zM1027 1039q0 171 -75 262.5
t-214 91.5q-167 0 -274 -122t-107 -304q0 -129 85.5 -202t234.5 -73q137 0 315 81q35 139 35 266z" />
    <glyph glyph-name="colon.ital" horiz-adv-x="880" 
d="M684 1126l-63 -273h-229l63 273h229zM487 273l-63 -273h-229l63 273h229z" />
    <glyph glyph-name="semicolon.ital" horiz-adv-x="880" 
d="M684 1126l-63 -273h-229l63 273h229zM560 273l-431 -643h-136l325 643h242z" />
    <glyph glyph-name="less.ital" horiz-adv-x="1646" 
d="M1419 93l-1154 513v106l1154 513v-161l-935 -405l935 -405v-161z" />
    <glyph glyph-name="equal.ital" horiz-adv-x="1646" 
d="M1442 798h-1186v142h1186v-142zM1442 378h-1186v142h1186v-142z" />
    <glyph glyph-name="greater.ital" horiz-adv-x="1646" 
d="M1443 606l-1154 -513v161l935 405l-935 405v161l1154 -513v-106z" />
    <glyph glyph-name="question.ital" horiz-adv-x="1087" 
d="M591 628l-55 -228h-171l71 310q309 141 392.5 243t83.5 219q0 102 -76 158t-210 56q-150 0 -343 -85h-12l45 184q180 52 337 52q210 0 331.5 -90t121.5 -249q0 -158 -98 -286t-417 -284zM514 211l-49 -211h-206l49 211h206z" />
    <glyph glyph-name="at.ital" 
d="M1669 146h-464v125q-139 -93 -203 -113t-123 -20q-140 0 -218 89.5t-78 251.5q0 280 163.5 470t380.5 190q141 0 268 -71l11 52h154l-206 -868h272q80 105 130 274t50 314q0 273 -157.5 424t-446.5 151q-365 0 -629.5 -277t-264.5 -654q0 -281 167 -445t456 -164
q187 0 367 47l-26 -130q-172 -37 -365 -37q-336 0 -536 190.5t-200 510.5q0 443 310 762.5t736 319.5q340 0 531 -180.5t191 -496.5q0 -402 -270 -715zM1365 947q-117 58 -238 58q-160 0 -267.5 -140t-107.5 -360q0 -223 199 -223q113 0 283 117z" />
    <glyph glyph-name="A.ital" horiz-adv-x="1387" 
d="M1229 0h-189l-56 434h-649l-257 -434h-198l907 1507h232zM965 581l-99 745l-444 -745h543z" />
    <glyph glyph-name="B.ital" horiz-adv-x="1400" 
d="M1034 854v-3q274 -59 274 -321q0 -237 -181 -383.5t-485 -146.5h-598l348 1507h409q125 0 204.5 -6t155.5 -42.5t113.5 -95t37.5 -137.5q0 -128 -74 -226t-204 -146zM545 1356l-108 -469h286q208 0 299.5 79.5t91.5 217.5q0 80 -59 126t-287 46h-223zM403 741l-137 -590
h324q184 0 291.5 32.5t168 119t60.5 217.5q0 79 -42.5 132t-121.5 71t-219 18h-324z" />
    <glyph glyph-name="C.ital" horiz-adv-x="1350" 
d="M1435 1370l-46 -203h-13q-210 215 -470 215q-262 0 -432 -221.5t-170 -554.5q0 -231 119 -356t332 -125q238 0 479 177h14l-49 -213q-274 -116 -457 -116q-296 0 -464.5 160.5t-168.5 449.5q0 407 225 679t584 272q266 0 517 -164z" />
    <glyph glyph-name="D.ital" horiz-adv-x="1535" 
d="M44 0l348 1507h322q418 0 600 -166t182 -443q0 -250 -124.5 -466t-331.5 -324t-562 -108h-434zM545 1356l-279 -1205h247q425 0 606 214t181 525q0 219 -140.5 342.5t-452.5 123.5h-162z" />
    <glyph glyph-name="E.ital" horiz-adv-x="1266" 
d="M1374 1507l-36 -155h-794l-104 -450h774l-36 -155h-774l-137 -592h794l-35 -155h-982l348 1507h982z" />
    <glyph glyph-name="F.ital" horiz-adv-x="1173" 
d="M1344 1507l-35 -155h-764l-107 -461h678l-36 -155h-678l-170 -736h-188l348 1507h952z" />
    <glyph glyph-name="G.ital" horiz-adv-x="1498" 
d="M1518 1366l-45 -206h-14q-239 223 -526 223q-279 0 -454 -222.5t-175 -542.5q0 -237 135 -366.5t381 -129.5q146 0 274 38l99 433h-392l35 154h577l-159 -687q-271 -89 -461 -89q-317 0 -500.5 164.5t-183.5 454.5q0 405 233 674.5t614 269.5q289 0 562 -168z" />
    <glyph glyph-name="H.ital" horiz-adv-x="1522" 
d="M1544 1507l-348 -1507h-188l173 749h-776l-173 -749h-188l348 1507h188l-140 -605h776l140 605h188z" />
    <glyph glyph-name="I.ital" horiz-adv-x="828" 
d="M912 1507l-30 -132h-197l-288 -1243h197l-30 -132h-583l30 132h198l288 1243h-198l30 132h583z" />
    <glyph glyph-name="J.ital" horiz-adv-x="912" 
d="M950 1507l-256 -1117q-44 -194 -187.5 -302.5t-351.5 -108.5q-115 0 -255 31l39 167h10q122 -46 212 -46q143 0 227.5 59.5t134.5 275.5l207 902h-329l32 139h517z" />
    <glyph glyph-name="K.ital" horiz-adv-x="1353" 
d="M1523 1507l-822 -717l525 -790h-218l-458 685l-202 -179l-116 -506h-188l348 1507h188l-181 -780l881 780h243z" />
    <glyph glyph-name="L.ital" horiz-adv-x="1141" 
d="M1019 155l-35 -155h-940l348 1507h188l-313 -1352h752z" />
    <glyph glyph-name="M.ital" horiz-adv-x="1703" 
d="M1725 1507l-348 -1507h-188l299 1295l-637 -885h-102l-231 886l-299 -1296h-175l348 1507h236l226 -865l623 865h248z" />
    <glyph glyph-name="N.ital" horiz-adv-x="1518" 
d="M1540 1507l-348 -1507h-197l-476 1300l-300 -1300h-175l348 1507h240l450 -1229l283 1229h175z" />
    <glyph glyph-name="O.ital" horiz-adv-x="1547" 
d="M692 -31q-270 0 -426.5 156.5t-156.5 427.5q0 409 230.5 697t580.5 288q270 0 426 -156.5t156 -427.5q0 -410 -228.5 -697.5t-581.5 -287.5zM904 1387q-258 0 -429 -237.5t-171 -582.5q0 -214 104.5 -330.5t299.5 -116.5q259 0 429 240t170 583q0 211 -105.5 327.5
t-297.5 116.5z" />
    <glyph glyph-name="P.ital" horiz-adv-x="1260" 
d="M364 573l-132 -573h-188l348 1507h382q264 0 387.5 -101t123.5 -273q0 -235 -176.5 -397.5t-478.5 -162.5h-266zM545 1356l-147 -634h218q245 0 358 108t113 281q0 245 -348 245h-194z" />
    <glyph glyph-name="Q.ital" horiz-adv-x="1547" 
d="M903 1q-5 -38 -5 -64q0 -173 198 -173q93 0 192 36h15l-39 -164q-117 -29 -238 -29q-150 0 -232 74.5t-82 211.5q0 32 7 77h-27q-270 0 -426.5 156t-156.5 427q0 409 230.5 697t580.5 288q270 0 426 -156.5t156 -427.5q0 -341 -164.5 -606.5t-434.5 -346.5zM904 1387
q-258 0 -429 -237.5t-171 -582.5q0 -214 104.5 -330.5t299.5 -116.5q259 0 429 240t170 583q0 211 -105.5 327.5t-297.5 116.5z" />
    <glyph glyph-name="R.ital" horiz-adv-x="1398" 
d="M882 649l393 -649h-218l-364 610h-320l-141 -610h-188l348 1507h398q273 0 389.5 -95t116.5 -247q0 -368 -414 -516zM545 1356l-139 -601h251q226 0 332 106t106 274q0 108 -73.5 164.5t-241.5 56.5h-235z" />
    <glyph glyph-name="S.ital" horiz-adv-x="1299" 
d="M1307 1394l-48 -205h-14q-193 195 -483 195q-166 0 -265.5 -82t-99.5 -212q0 -145 175 -201q60 -15 150 -40l171 -48q82 -23 136.5 -56t89 -73t51.5 -88.5t17 -105.5q0 -213 -171.5 -359t-446.5 -146t-556 153l46 223h13q101 -105 240 -165.5t277 -60.5q187 0 293 86.5
t106 226.5q0 135 -155 191q-190 46 -334.5 87t-223 125.5t-78.5 211.5q0 205 163 344t416 139q267 0 531 -140z" />
    <glyph glyph-name="T.ital" horiz-adv-x="1302" 
d="M1487 1507l-36 -155h-535l-312 -1352h-188l312 1352h-535l36 155h1258z" />
    <glyph glyph-name="U.ital" horiz-adv-x="1493" 
d="M1532 1507l-210 -909q-84 -365 -257.5 -497t-434.5 -132q-237 0 -363.5 112.5t-126.5 319.5q0 89 28 210l207 896h188l-212 -917q-23 -99 -23 -171q0 -298 329 -298q135 0 233 50.5t148.5 141t89.5 259.5l216 935h188z" />
    <glyph glyph-name="V.ital" horiz-adv-x="1397" 
d="M1583 1507l-949 -1507h-158l-252 1507h188l198 -1241l774 1241h199z" />
    <glyph glyph-name="W.ital" horiz-adv-x="2056" 
d="M2166 1507l-774 -1507h-163l-57 1258l-634 -1258h-158l-80 1507h184l52 -1209l606 1209h180l53 -1221l608 1221h183z" />
    <glyph glyph-name="X.ital" horiz-adv-x="1371" 
d="M1526 1507l-701 -755l355 -752h-199l-287 624l-569 -624h-214l709 762l-351 745h198l284 -616l561 616h214z" />
    <glyph glyph-name="Y.ital" horiz-adv-x="1292" 
d="M1493 1507l-751 -883l-144 -624h-188l139 604l-341 903h198l270 -725l607 725h210z" />
    <glyph glyph-name="Z.ital" horiz-adv-x="1333" 
d="M1436 1507l-36 -156l-1189 -1196h934l-35 -155h-1160l37 161l1178 1191h-869l36 155h1104z" />
    <glyph glyph-name="bracketleft.ital" horiz-adv-x="900" 
d="M967 1574l-28 -122h-358l-400 -1727h358l-27 -122h-523l455 1971h523z" />
    <glyph glyph-name="yen.ital" horiz-adv-x="1272" 
d="M1393 1507l-560 -725h317l-27 -115h-377l-46 -200h377l-26 -115h-374l-83 -352h-178l83 352h-376l26 115h377l46 200h-377l27 115h314l-226 725h192l191 -679l505 679h195z" />
    <glyph glyph-name="bracketright.ital" horiz-adv-x="900" 
d="M900 1574l-455 -1971h-523l27 122h358l400 1727h-358l28 122h523z" />
    <glyph glyph-name="asciicircum.ital" horiz-adv-x="1646" 
d="M1492 684h-179l-465 663l-464 -665h-178l589 825h108z" />
    <glyph glyph-name="uni0332.ital" horiz-adv-x="1272" 
d="M1102 -189l-24 -102h-1280l24 102h1280z" />
    <glyph glyph-name="gravecomb.ital" horiz-adv-x="1272" 
d="M893 1316h-125l-205 374h216z" />
    <glyph glyph-name="a.ital" horiz-adv-x="1184" 
d="M891 0h-178l28 128q-169 -111 -252 -134.5t-163 -23.5q-133 0 -218.5 84.5t-85.5 216.5q0 221 190 331.5t667 124.5l8 34q9 38 9 72q0 173 -275 173q-142 0 -352 -81h-8l40 174q201 55 362 55q413 0 413 -289q0 -55 -16 -125zM850 596q-380 -19 -511 -92.5t-131 -206.5
q0 -171 208 -171q144 0 358 143z" />
    <glyph glyph-name="b.ital" horiz-adv-x="1242" 
d="M232 61l-28 -61h-164l364 1574h178l-133 -574q137 98 218 128t168 30q158 0 250.5 -112t92.5 -306q0 -320 -182.5 -546t-445.5 -226q-158 0 -318 93zM417 859l-154 -667q146 -76 276 -76q200 0 326.5 172t126.5 434q0 277 -230 277q-151 0 -345 -140z" />
    <glyph glyph-name="c.ital" horiz-adv-x="1035" 
d="M1077 1037l-42 -189h-9q-107 101 -184.5 130.5t-157.5 29.5q-193 0 -310.5 -157.5t-117.5 -396.5q0 -333 321 -333q159 0 354 122h9l-44 -192q-191 -77 -333 -77q-233 0 -362 120t-129 342q0 297 173.5 507.5t449.5 210.5q191 0 382 -117z" />
    <glyph glyph-name="d.ital" horiz-adv-x="1242" 
d="M1305 1574l-364 -1574h-178l29 125q-136 -96 -216.5 -126t-167.5 -30q-158 0 -251 112.5t-93 306.5q0 316 183.5 543t445.5 227q158 0 316 -93l118 509h178zM979 934q-144 75 -275 75q-201 0 -327.5 -169t-126.5 -427q0 -286 237 -286q152 0 338 140z" />
    <glyph glyph-name="e.ital" horiz-adv-x="1176" 
d="M1092 551h-835q-5 -46 -5 -86q0 -165 101.5 -255t280.5 -90q218 0 379 113h9l-46 -190q-229 -69 -366 -69q-251 0 -394.5 125t-143.5 350q0 300 176.5 504.5t444.5 204.5q203 0 314 -104.5t111 -299.5q0 -66 -14 -140zM279 676h662q7 41 7 88q0 252 -275 252
q-144 0 -251.5 -92t-142.5 -248z" />
    <glyph glyph-name="f.ital" horiz-adv-x="690" 
d="M1000 1559l-37 -154h-6q-86 31 -168 31q-128 0 -193.5 -59t-99.5 -207l-10 -44h345l-32 -136h-338l-223 -990h-178l223 990h-130l32 136h129l11 51q88 408 458 408q81 0 217 -26z" />
    <glyph glyph-name="g.ital" horiz-adv-x="1239" 
d="M1198 1126l-228 -998q-66 -290 -221.5 -424t-427.5 -134q-175 0 -335 51l39 172h8q158 -70 331 -70q335 0 409 325l28 122q-118 -87 -204 -120t-186 -33q-165 0 -256 102.5t-91 291.5q0 301 178.5 524t434.5 223q171 0 328 -92l27 60h166zM975 933q-148 77 -283 77
q-199 0 -320.5 -163t-121.5 -408q0 -268 240 -268q130 0 344 140z" />
    <glyph glyph-name="h.ital" horiz-adv-x="1265" 
d="M971 0h-178l148 642q28 121 28 193q0 165 -184 165q-151 0 -371 -153l-196 -847h-178l364 1574h178l-135 -583q244 167 409 167q140 0 220 -75.5t80 -213.5q0 -68 -24 -172z" />
    <glyph glyph-name="i.ital" horiz-adv-x="524" 
d="M587 1540l-43 -184h-201l43 184h201zM480 1126l-260 -1126h-178l260 1126h178z" />
    <glyph glyph-name="j.ital" horiz-adv-x="677" 
d="M731 1540l-43 -184h-201l43 184h201zM634 1126l-262 -1149q-43 -190 -164 -296t-295 -106q-111 0 -214 31l37 160h10q93 -38 177 -38q113 0 178 60.5t109 255.5l214 944h-248l32 138h426z" />
    <glyph glyph-name="k.ital" horiz-adv-x="1127" 
d="M1214 1126l-623 -522l424 -604h-213l-354 511l-138 -115l-92 -396h-178l364 1574h178l-229 -990l625 542h236z" />
    <glyph glyph-name="l.ital" horiz-adv-x="524" 
d="M584 1574l-364 -1574h-178l364 1574h178z" />
    <glyph glyph-name="m.ital" horiz-adv-x="1956" 
d="M1662 0h-178l148 642q29 126 29 194q0 92 -40 128t-128 36q-150 0 -365 -160q-11 -81 -26 -143l-162 -697h-178l148 642q28 121 28 194q0 92 -40 128t-129 36q-144 0 -355 -153l-196 -847h-178l260 1126h178l-31 -135q238 167 392 167q230 0 278 -197q255 197 445 197
q134 0 210 -74.5t76 -207.5q0 -70 -24 -175z" />
    <glyph glyph-name="n.ital" horiz-adv-x="1265" 
d="M971 0h-178l148 642q28 121 28 192q0 166 -184 166q-151 0 -371 -153l-196 -847h-178l260 1126h178l-31 -135q244 167 409 167q139 0 219.5 -76t80.5 -213q0 -68 -24 -172z" />
    <glyph glyph-name="o.ital" horiz-adv-x="1207" 
d="M519 -32q-209 0 -328 119.5t-119 329.5q0 305 175 523t445 218q207 0 325 -121.5t118 -330.5q0 -307 -175.5 -522.5t-440.5 -215.5zM673 1013q-186 0 -301.5 -170.5t-115.5 -421.5q0 -308 277 -308q187 0 302.5 170.5t115.5 422.5q0 307 -278 307z" />
    <glyph glyph-name="p.ital" horiz-adv-x="1242" 
d="M234 69l-111 -486h-179l356 1543h178l-29 -125q141 99 221.5 128t166.5 29q157 0 249 -112t92 -299q0 -322 -177 -545.5t-440 -223.5q-176 0 -327 91zM416 860l-151 -659q140 -74 289 -74q199 0 318.5 171t119.5 435q0 267 -238 267q-134 0 -338 -140z" />
    <glyph glyph-name="q.ital" horiz-adv-x="1242" 
d="M1201 1126l-356 -1543h-178l127 554q-137 -97 -218 -127.5t-168 -30.5q-158 0 -251 111.5t-93 298.5q0 322 178 545.5t442 223.5q174 0 325 -92l28 60h164zM979 933q-93 51 -151.5 64t-136.5 13q-199 0 -320 -172t-121 -435q0 -265 239 -265q136 0 337 140z" />
    <glyph glyph-name="r.ital" horiz-adv-x="849" 
d="M991 1116l-43 -184h-7q-88 21 -162 21q-172 0 -372 -144l-185 -809h-179l257 1126h178l-38 -174q251 174 424 174q64 0 127 -10z" />
    <glyph glyph-name="s.ital" horiz-adv-x="1017" 
d="M1000 1046l-40 -181h-8q-170 149 -371 149q-119 0 -189.5 -53t-70.5 -147q0 -98 154 -146l210 -59q114 -32 171.5 -95t57.5 -157q0 -167 -134 -276t-351 -109q-230 0 -424 117l43 193h8q188 -170 398 -170q274 0 274 208q0 99 -159 145q-159 40 -244.5 70.5t-137 90.5
t-51.5 148q0 161 129 271t336 110q229 0 399 -109z" />
    <glyph glyph-name="t.ital" horiz-adv-x="777" 
d="M878 1126l-32 -136h-393l-124 -535q-27 -116 -27 -189q0 -78 43 -110.5t140 -32.5q63 0 163 35h6l-35 -151q-124 -29 -222 -29q-282 0 -282 251q0 68 17 141l143 620h-130l32 136h132l75 327h176l-75 -327h393z" />
    <glyph glyph-name="u.ital" horiz-adv-x="1263" 
d="M1222 1126l-260 -1126h-178l31 136q-240 -167 -407 -167q-139 0 -219 76t-80 212q0 73 23 172l161 697h178l-148 -642q-27 -117 -27 -192q0 -165 182 -165q150 0 370 152l196 847h178z" />
    <glyph glyph-name="v.ital" horiz-adv-x="1154" 
d="M1248 1126l-748 -1126h-124l-216 1126h186l155 -864l554 864h193z" />
    <glyph glyph-name="w.ital" horiz-adv-x="1694" 
d="M1757 1126l-595 -1126h-120l-122 898l-519 -898h-123l-90 1126h180l60 -840l482 840h122l120 -857l429 857h176z" />
    <glyph glyph-name="x.ital" horiz-adv-x="1130" 
d="M1217 1126l-553 -566l292 -560h-199l-220 437l-413 -437h-211l556 568l-291 558h199l219 -435l410 435h211z" />
    <glyph glyph-name="y.ital" horiz-adv-x="1154" 
d="M1248 1126l-1015 -1543h-196l326 477l-204 1066h187l161 -852l548 852h193z" />
    <glyph glyph-name="z.ital" horiz-adv-x="1035" 
d="M1085 1126l-26 -111l-852 -879h667l-32 -136h-897l26 119l844 871h-629l32 136h867z" />
    <glyph glyph-name="braceleft.ital" horiz-adv-x="1228" 
d="M1294 1574l-27 -119h-114q-263 0 -327 -271l-46 -196q-64 -271 -379 -391l-6 -25q210 -95 210 -286q0 -50 -11 -97l-46 -196q-12 -51 -12 -101q0 -170 216 -170h114l-27 -119h-150q-318 0 -318 274q0 62 13 118l36 156q17 74 17 131q0 239 -263 239h-57l31 135h57
q330 0 415 370l36 156q43 185 172 288.5t316 103.5h150z" />
    <glyph glyph-name="brokenbar.ital" horiz-adv-x="900" 
d="M558 766h-154v808h154v-808zM558 -392h-154v808h154v-808z" />
    <glyph glyph-name="braceright.ital" horiz-adv-x="1228" 
d="M1100 656l-31 -135h-57q-329 0 -415 -370l-36 -156q-43 -185 -172 -288.5t-316 -103.5h-150l27 119h114q264 0 327 271l46 196q64 271 379 391l6 25q-210 96 -210 286q0 50 11 97l46 196q12 51 12 101q0 170 -216 170h-114l27 119h150q318 0 318 -274q0 -61 -13 -118
l-36 -156q-17 -74 -17 -131q0 -239 263 -239h57z" />
    <glyph glyph-name="tildecomb.ital" horiz-adv-x="1272" 
d="M1190 1633q-75 -306 -288 -306q-99 0 -162 79q-71 89 -132 89q-92 0 -130 -172h-123q34 146 110 226t177 80q94 0 160 -78q76 -90 133 -90q94 0 132 172h123z" />
    <glyph glyph-name="quoteright.ital" horiz-adv-x="530" 
d="M719 1574l-362 -565h-128l256 565h234z" />
    <glyph glyph-name="glyph419" horiz-adv-x="920" 
d="M794 -304h-150l-401 1878h153z" />
    <glyph glyph-name="quoteleft.ital" horiz-adv-x="530" 
d="M605 1574l-256 -565h-234l362 565h128z" />
    <glyph glyph-name="bar.ital" horiz-adv-x="900" 
d="M558 -392h-154v1966h154v-1966z" />
    <glyph glyph-name="similar.ital" horiz-adv-x="1646" 
d="M1497 931q-4 -232 -100 -378.5t-259 -146.5q-73 0 -131 25t-106.5 72.5t-198.5 219.5q-68 65 -137 65q-199 0 -215 -383h-149q6 237 100.5 381t257.5 144q69 0 141 -28.5t180 -153.5l107 -123q29 -33 68 -55t77 -22q201 0 216 383h149z" />
    <glyph glyph-name="exclamdown.ital" horiz-adv-x="776" 
d="M600 1126l-49 -211h-206l49 211h206zM480 716l-225 -1097h-214l281 1097h158z" />
    <glyph glyph-name="cent.ital" horiz-adv-x="1272" 
d="M1185 1027l-41 -173h-10q-151 134 -285 155l-205 -885h18q152 0 366 127h10l-45 -182q-204 -75 -343 -75q-24 0 -36 1l-83 -361h-106l85 371q-381 63 -381 438q0 284 179 487.5t465 209.5l81 353h106l-82 -357q142 -16 307 -109zM744 1012q-193 -16 -312 -173.5
t-119 -381.5q0 -261 228 -319z" />
    <glyph glyph-name="sterling.ital" horiz-adv-x="1272" 
d="M1333 1485l-44 -185h-10q-120 87 -285 87q-269 0 -340 -323l-68 -311h416l-30 -125h-411l-13 -69q-24 -130 -108.5 -234t-209.5 -159v-11h852l-36 -155h-1036l41 175q263 64 330 453h-179l30 125h174l70 321q46 210 192.5 338t348.5 128q141 0 316 -55z" />
    <glyph glyph-name="fraction.ital" horiz-adv-x="312" 
d="M903 1518l-1198 -1518h-154l1198 1518h154z" />
    <glyph glyph-name="florin.ital" horiz-adv-x="1272" 
d="M1295 1511l-37 -154h-6q-88 32 -168 32q-123 0 -184 -56t-104 -235l-51 -213h343l-29 -120h-340l-115 -506q-54 -240 -167.5 -351t-321.5 -111q-66 0 -203 26l37 154h6q89 -32 168 -32q129 0 193.5 65.5t104.5 240.5l117 514h-239l29 120h236l48 210q101 442 479 442
q68 0 204 -26z" />
    <glyph glyph-name="section.ital" horiz-adv-x="1272" 
d="M1249 1460l-38 -181h-11q-192 112 -381 112q-150 0 -235.5 -56.5t-85.5 -157.5q0 -77 59.5 -121.5t262.5 -111.5q314 -103 314 -304q0 -261 -292 -397v-10q138 -79 138 -209q0 -183 -151 -298.5t-403 -115.5q-191 0 -388 79l39 181h12q200 -114 382 -114
q148 0 234.5 56.5t86.5 157.5q0 77 -59 120.5t-265 112.5q-317 107 -317 305q0 258 295 396v10q-136 79 -136 211q0 183 150 297.5t402 114.5q195 0 387 -77zM570 856q-236 -100 -236 -294q0 -67 44 -116.5t140 -83.5l200 -72q234 102 234 295q0 67 -40.5 115.5t-136.5 82.5
z" />
    <glyph glyph-name="currency.ital" horiz-adv-x="1272" 
d="M1184 241l-101 -96l-237 238q-82 -54 -180 -54t-178 54l-238 -238l-101 96l240 240q-55 80 -55 180q0 96 55 181l-240 239l101 96l238 -237q81 53 178 53q98 0 180 -53l237 237l101 -96l-239 -239q54 -83 54 -181q0 -97 -54 -180zM666 865q-82 0 -140.5 -60t-58.5 -144
t58.5 -144t140.5 -60t140.5 59.5t58.5 144.5q0 83 -58 143.5t-141 60.5z" />
    <glyph glyph-name="quotedblleft.ital" horiz-adv-x="920" 
d="M995 1574l-256 -565h-234l362 565h128zM605 1574l-256 -565h-234l362 565h128z" />
    <glyph glyph-name="guillemotleft.ital" horiz-adv-x="1350" 
d="M1304 1149l-47 -190l-459 -311l325 -316l-45 -163l-447 446l20 88zM844 1149l-47 -190l-459 -311l325 -316l-45 -163l-447 446l20 88z" />
    <glyph glyph-name="guilsinglleft.ital" horiz-adv-x="890" 
d="M844 1149l-47 -190l-459 -311l325 -316l-45 -163l-447 446l20 88z" />
    <glyph glyph-name="guilsinglright.ital" horiz-adv-x="890" 
d="M719 703l-20 -88l-653 -446l47 190l459 311l-325 316l45 163z" />
    <glyph glyph-name="uniFB01.ital" horiz-adv-x="1211" 
d="M1165 1126l-258 -1126h-178l228 993h-495l-224 -993h-178l223 990h-130l32 136h129l12 53q92 406 458 406q66 0 210 -27l-36 -155h-6q-91 33 -162 33q-128 0 -193 -58.5t-100 -205.5l-11 -46h679zM1273 1540l-43 -184h-198l43 184h198z" />
    <glyph glyph-name="uniFB02.ital" horiz-adv-x="1218" 
d="M1276 1575l-362 -1575h-178l324 1412q-91 28 -218 28q-160 0 -235.5 -59t-111.5 -213l-10 -42h328l-32 -136h-320l-223 -990h-178l223 990h-130l32 136h128l11 46q99 413 530 413q75 0 230 -24z" />
    <glyph glyph-name="endash.ital" horiz-adv-x="1272" 
d="M1171 730l-33 -142h-996l33 142h996z" />
    <glyph glyph-name="glyph437" horiz-adv-x="1272" 
d="M1216 1072l-27 -114l-386 92l-200 -888l-115 27l209 886l-389 81l27 114l386 -91l86 395l115 -27l-95 -393z" />
    <glyph glyph-name="glyph438" horiz-adv-x="1272" 
d="M1217 1083l-26 -114l-387 91l-97 -419l389 -82l-26 -114l-387 92l-84 -385l-115 27l94 383l-389 81l26 114l387 -91l97 419l-389 82l26 114l387 -92l84 385l115 -27l-94 -383z" />
    <glyph glyph-name="uni2219.ital" horiz-adv-x="715" 
d="M523 792l-61 -265h-229l61 265h229z" />
    <glyph glyph-name="paragraph.ital" horiz-adv-x="1272" 
d="M1298 1507l-432 -1874h-130l407 1762h-234l-406 -1762h-130l226 979q-175 4 -272 99t-97 263q0 242 166.5 387.5t450.5 145.5h451z" />
    <glyph glyph-name="bullet.ital" horiz-adv-x="1087" 
d="M567 305q-151 0 -257.5 106.5t-106.5 257.5q0 152 106.5 258t257.5 106q152 0 258.5 -106t106.5 -258t-106.5 -258t-258.5 -106z" />
    <glyph glyph-name="quotesinglbase.ital" horiz-adv-x="530" 
d="M429 273l-362 -565h-128l256 565h234z" />
    <glyph glyph-name="quotedblbase.ital" horiz-adv-x="920" 
d="M819 273l-362 -565h-128l256 565h234zM429 273l-362 -565h-128l256 565h234z" />
    <glyph glyph-name="quotedblright.ital" horiz-adv-x="920" 
d="M1109 1574l-362 -565h-128l256 565h234zM719 1574l-362 -565h-128l256 565h234z" />
    <glyph glyph-name="guillemotright.ital" horiz-adv-x="1350" 
d="M1179 703l-20 -88l-653 -446l47 190l459 311l-325 316l45 163zM719 703l-20 -88l-653 -446l47 190l459 311l-325 316l45 163z" />
    <glyph glyph-name="glyph446" horiz-adv-x="1646" 
d="M1392 223l-52 -223h-200l52 223h200zM843 223l-52 -223h-200l52 223h200zM294 223l-52 -223h-200l52 223h200z" />
    <glyph glyph-name="glyph447" horiz-adv-x="2982" 
d="M523 642q-323 0 -323 314q0 219 106.5 400t332.5 181q325 0 325 -315q0 -220 -107 -400t-334 -180zM629 1423q-147 0 -206.5 -167t-59.5 -311q0 -189 169 -189q149 0 209 166.5t60 313.5q0 187 -172 187zM1777 1518l-1198 -1518h-154l1198 1518h154zM2430 -30
q-325 0 -325 315q0 220 107 400t334 180q323 0 323 -314q0 -219 -106.5 -400t-332.5 -181zM2537 751q-149 0 -209 -166.5t-60 -313.5q0 -187 172 -187q147 0 206.5 167t59.5 311q0 189 -169 189zM1554 -30q-325 0 -325 315q0 220 107 400t334 180q323 0 323 -314
q0 -219 -106.5 -400t-332.5 -181zM1661 751q-149 0 -209 -166.5t-60 -313.5q0 -187 172 -187q147 0 206.5 167t59.5 311q0 189 -169 189z" />
    <glyph glyph-name="questiondown.ital" horiz-adv-x="1087" 
d="M806 1126l-49 -211h-206l49 211h206zM794 -175l-45 -184q-180 -52 -337 -52q-210 0 -331.5 90t-121.5 249q0 158 98 286t417 284l55 228h171l-71 -310q-309 -141 -392.5 -243t-83.5 -219q0 -102 76 -158t210 -56q151 0 343 85h12z" />
    <glyph glyph-name="acutecomb.ital" horiz-adv-x="1272" 
d="M1128 1690l-355 -374h-136l254 374h237z" />
    <glyph glyph-name="uni0302.ital" horiz-adv-x="1272" 
d="M1097 1311h-132l-135 273l-260 -273h-142l314 379h208z" />
    <glyph glyph-name="uni0304.ital" horiz-adv-x="1272" 
d="M1219 1547l-33 -138h-777l33 138h777z" />
    <glyph glyph-name="uni0306.ital" horiz-adv-x="1272" 
d="M1208 1684q-52 -169 -170.5 -269.5t-275.5 -100.5q-284 0 -284 286q0 39 6 84h150q-5 -35 -5 -75q0 -179 160 -179q190 0 270 254h149z" />
    <glyph glyph-name="uni0307.ital" horiz-adv-x="1272" 
d="M901 1540l-43 -184h-201l43 184h201z" />
    <glyph glyph-name="uni0308.ital" horiz-adv-x="1272" 
d="M1116 1540l-43 -184h-201l43 184h201zM681 1540l-43 -184h-201l43 184h201z" />
    <glyph glyph-name="uni030A.ital" horiz-adv-x="1272" 
d="M1108 1600q0 -125 -94 -213.5t-225 -88.5q-116 0 -191.5 69t-75.5 176q0 123 93.5 211t225.5 88q118 0 192.5 -68.5t74.5 -173.5zM976 1596q0 146 -141 146q-82 0 -131.5 -57t-49.5 -140q0 -147 141 -147q79 0 130 56.5t51 141.5z" />
    <glyph glyph-name="uni0327.ital" horiz-adv-x="1272" 
d="M860 14v-17q0 -195 -101 -307.5t-279 -112.5q-91 0 -197 30l33 142h9q96 -37 157 -37q117 0 172 58.5t58 211.5z" />
    <glyph glyph-name="uni030B.ital" horiz-adv-x="1272" 
d="M1323 1690l-348 -374h-127l247 374h228zM919 1690l-348 -374h-127l247 374h228z" />
    <glyph glyph-name="uni0328.ital" horiz-adv-x="1272" 
d="M872 -246l-34 -141q-103 -30 -174 -30q-77 0 -124.5 40t-47.5 107q0 35 21.5 88.5t160.5 201.5h128q-155 -133 -155 -225q0 -78 95 -78q50 0 122 37h8z" />
    <glyph glyph-name="uni030C.ital" horiz-adv-x="1272" 
d="M1180 1690l-314 -379h-208l-147 379h132l135 -273l260 273h142z" />
    <glyph glyph-name="emdash.ital" 
d="M1932 730l-33 -142h-1742l33 142h1742z" />
    <glyph glyph-name="AE.ital" horiz-adv-x="2096" 
d="M2204 1507l-36 -155h-757l-107 -450h740l-36 -155h-739l-139 -592h761l-35 -155h-947l135 572h-552l-411 -572h-205l1100 1507h1228zM1226 1353h-170l-454 -628h477z" />
    <glyph glyph-name="ordfeminine.ital" horiz-adv-x="1087" 
d="M917 571h-157l25 102q-131 -84 -206.5 -104.5t-147.5 -20.5q-112 0 -180.5 66t-68.5 173q0 200 160.5 298t563.5 112q9 44 9 73q0 131 -217 131q-128 0 -302 -62h-14l34 153q186 45 314 45q346 0 346 -228q0 -48 -12 -100zM877 1074q-337 -18 -433 -80.5t-96 -171.5
q0 -130 170 -130q125 0 297 110z" />
    <glyph glyph-name="Lslash.ital" horiz-adv-x="1151" 
d="M1029 155l-35 -155h-940l132 572l-215 -127l37 159l214 124l180 779h188l-156 -674l405 240l-38 -159l-403 -237l-121 -522h752z" />
    <glyph glyph-name="Oslash.ital" horiz-adv-x="1547" 
d="M1553 1629l-202 -256q151 -157 151 -419q0 -410 -228.5 -697.5t-581.5 -287.5q-215 0 -363 106l-174 -221h-116l221 280q-151 159 -151 419q0 409 230.5 697t580.5 288q216 0 362 -105l155 196h116zM1176 1298q-103 91 -272 91q-260 0 -432 -238.5t-172 -583.5
q0 -178 73 -291zM1237 1231l-803 -1022q105 -91 274 -91q261 0 432 240t171 585q0 176 -74 288z" />
    <glyph glyph-name="OE.ital" horiz-adv-x="2156" 
d="M2263 1507l-36 -155h-759l-104 -450h739l-36 -155h-739l-137 -592h759l-35 -155h-1054q-250 0 -407 55t-251 192.5t-94 339.5q0 254 125.5 469t344 333t584.5 118h1100zM1281 1356h-170q-418 0 -612.5 -227.5t-194.5 -538.5q0 -123 41 -209t122 -139.5t168.5 -72
t235.5 -18.5h132z" />
    <glyph glyph-name="ordmasculine.ital" horiz-adv-x="1087" 
d="M545 548q-173 0 -269 98t-96 273q0 264 151.5 441t383.5 177q172 0 268 -97.5t96 -271.5q0 -267 -150.5 -443.5t-383.5 -176.5zM691 1404q-153 0 -247 -134t-94 -337q0 -252 220 -252q151 0 245 135t94 340q0 248 -218 248z" />
    <glyph glyph-name="ae.ital" horiz-adv-x="1880" 
d="M1800 572h-816q-8 -44 -8 -107q0 -166 97 -255.5t272 -89.5q213 0 372 113h9l-46 -190q-225 -69 -358 -69q-332 0 -461 219q-247 -223 -536 -223q-131 0 -217 84.5t-86 216.5q0 205 165.5 309t657.5 120l14 62q8 35 8 71q0 173 -266 173q-138 0 -344 -81h-10l40 174
q196 55 355 55q289 0 374 -150q164 154 389 154q199 0 308 -104.5t109 -299.5q0 -66 -14 -140zM1006 697h642q4 60 4 67q0 252 -266 252q-134 0 -237.5 -88t-142.5 -231zM815 305q-17 68 -17 144q0 59 8 121q-381 -16 -489.5 -84.5t-108.5 -188.5q0 -171 201 -171
q200 0 406 179z" />
    <glyph glyph-name="dotlessi.ital" horiz-adv-x="524" 
d="M480 1126l-260 -1126h-178l260 1126h178z" />
    <glyph glyph-name="lslash.ital" horiz-adv-x="544" 
d="M653 1017l-36 -154l-217 -127l-170 -736h-178l147 634l-218 -129l35 154l218 127l182 788h178l-159 -686z" />
    <glyph glyph-name="oslash.ital" horiz-adv-x="1207" 
d="M1196 1251l-174 -222q113 -122 113 -323q0 -307 -175.5 -522.5t-440.5 -215.5q-158 0 -270 76l-150 -192h-105l192 246q-114 122 -114 319q0 305 175 523t445 218q157 0 266 -75l132 168h106zM859 957q-70 58 -186 58q-188 0 -304.5 -171.5t-116.5 -422.5q0 -115 41 -190
zM914 894l-567 -726q70 -57 186 -57q189 0 305.5 171t116.5 424q0 115 -41 188z" />
    <glyph glyph-name="oe.ital" horiz-adv-x="1989" 
d="M1906 551h-816q-4 -56 -4 -86q0 -166 98 -256t272 -90q210 0 370 114h9l-46 -190q-228 -70 -358 -70q-341 0 -468 248q-181 -253 -454 -253q-205 0 -321 119.5t-116 329.5q0 304 172.5 522.5t437.5 218.5q278 0 385 -230q180 230 449 230q199 0 307 -104.5t108 -299.5
q0 -60 -14 -140zM1113 676h641q7 41 7 87q0 253 -264 253q-141 0 -246 -92.5t-138 -247.5zM663 1013q-181 0 -294 -171t-113 -421q0 -308 267 -308q182 0 295.5 171t113.5 422q0 307 -269 307z" />
    <glyph glyph-name="germandbls.ital" horiz-adv-x="1229" 
d="M870 926v-8q278 -67 278 -335q0 -254 -170 -430.5t-419 -176.5q-112 0 -191 29l35 152h10q64 -44 196 -44q158 0 256.5 136t98.5 326q0 265 -351 265l33 134q175 0 274 81t99 219q0 78 -56 128t-154 50q-259 0 -340 -353l-250 -1099h-178l249 1092q112 493 555 493
q162 0 259 -75t97 -205q0 -131 -92 -235t-239 -144z" />
    <glyph glyph-name="minus.ital" horiz-adv-x="1646" 
d="M1467 588h-1236v142h1236v-142z" />
    <glyph glyph-name="copyright.ital" 
d="M1048 -191q-358 0 -611.5 253t-253.5 612q0 358 253.5 611t611.5 253t611.5 -253t253.5 -611q0 -359 -253.5 -612t-611.5 -253zM1049 1428q-312 0 -530.5 -220.5t-218.5 -533.5t218.5 -534t530.5 -221t530.5 221t218.5 534t-218.5 533.5t-530.5 220.5zM1395 280
q-179 -77 -319 -77q-230 0 -358 124t-128 352q0 223 131 351t355 128q158 0 319 -75v-174h-11q-162 110 -313 110q-305 0 -305 -340q0 -337 305 -337q149 0 312 110h12v-172z" />
    <glyph glyph-name="logicalnot.ital" horiz-adv-x="1646" 
d="M1461 64h-153v554h-1087v142h1240v-696z" />
    <glyph glyph-name="registered.ital" 
d="M1048 -191q-358 0 -611.5 253t-253.5 612q0 358 253.5 611t611.5 253t611.5 -253t253.5 -611q0 -359 -253.5 -612t-611.5 -253zM1049 1428q-312 0 -530.5 -220.5t-218.5 -533.5t218.5 -534t530.5 -221t530.5 221t218.5 534t-218.5 533.5t-530.5 220.5zM1597 237h-214
l-331 355h-165v-355h-160v909h309q217 0 305.5 -65t88.5 -183q0 -179 -215 -262zM887 1027v-315h129q127 0 183.5 43.5t56.5 131.5q0 68 -48.5 104t-169.5 36h-151z" />
    <glyph glyph-name="degree.ital" horiz-adv-x="1080" 
d="M622 743q-168 0 -283 114t-115 283q0 168 114.5 282.5t283.5 114.5q170 0 284 -114t114 -283q0 -168 -114.5 -282.5t-283.5 -114.5zM622 1395q-108 0 -179 -73t-71 -182q0 -110 71.5 -182.5t178.5 -72.5q108 0 179 73t71 182t-71 182t-179 73z" />
    <glyph glyph-name="plusminus.ital" horiz-adv-x="1646" 
d="M1472 178h-1246v140h549v457h-549v140h549v554h148v-554h549v-140h-549v-457h549v-140z" />
    <glyph glyph-name="uni00B2.ital" horiz-adv-x="950" 
d="M329 693h507l-29 -129h-707l33 145q317 204 470 329t153 242q0 59 -48.5 94t-127.5 35q-121 0 -283 -71h-17l35 149q143 50 279 50q149 0 238 -65.5t89 -177.5q0 -156 -151.5 -290.5t-440.5 -310.5z" />
    <glyph glyph-name="uni00B3.ital" horiz-adv-x="950" 
d="M713 1079q164 -51 164 -201q0 -142 -116 -238t-289 -96q-165 0 -330 87l30 139h14q119 -98 289 -98q105 0 171.5 59t66.5 158q0 128 -191 128h-88l29 123h61q110 0 175.5 41.5t65.5 114.5q0 113 -181 113q-137 0 -282 -67h-16l34 146q142 49 276 49q152 0 241.5 -60
t89.5 -160q0 -85 -61.5 -151.5t-152.5 -86.5z" />
    <glyph glyph-name="uni00B5.ital" horiz-adv-x="1272" 
d="M1230 1126l-260 -1126h-177l30 130q-171 -151 -323 -151q-148 0 -253 146l-125 -542h-178l357 1543h178l-200 -861q33 -53 105 -91t152 -38q167 0 319 136l197 854h178z" />
    <glyph glyph-name="uni00B9.ital" horiz-adv-x="950" 
d="M797 678l-27 -114h-577l25 114h212l140 608h-212l24 104q138 1 194.5 35.5t76.5 96.5h132l-196 -844h208z" />
    <glyph glyph-name="onequarter.ital" horiz-adv-x="2212" 
d="M797 678l-27 -114h-577l25 114h212l140 608h-212l24 104q138 1 194.5 35.5t76.5 96.5h132l-196 -844h208zM1863 1518l-1198 -1518h-154l1198 1518h154zM2133 386l-28 -121h-146l-62 -267h-155l62 267h-484l35 155l616 535h146l-130 -569h146zM1920 765l-435 -379h347z
" />
    <glyph glyph-name="onehalf.ital" horiz-adv-x="2212" 
d="M797 678l-27 -114h-577l25 114h212l140 608h-212l24 104q138 1 194.5 35.5t76.5 96.5h132l-196 -844h208zM1853 1518l-1198 -1518h-154l1198 1518h154zM1561 129h507l-29 -129h-707l33 145q317 204 470 329t153 242q0 59 -48.5 94t-127.5 35q-121 0 -283 -71h-17l35 149
q143 50 279 50q149 0 238 -65.5t89 -177.5q0 -156 -151.5 -290.5t-440.5 -310.5z" />
    <glyph glyph-name="threequarters.ital" horiz-adv-x="2212" 
d="M713 1079q164 -51 164 -201q0 -142 -116 -238t-289 -96q-165 0 -330 87l30 139h14q119 -98 289 -98q105 0 171.5 59t66.5 158q0 128 -191 128h-88l29 123h61q110 0 175.5 41.5t65.5 114.5q0 113 -181 113q-137 0 -282 -67h-16l34 146q142 49 276 49q152 0 241.5 -60
t89.5 -160q0 -85 -61.5 -151.5t-152.5 -86.5zM1863 1518l-1198 -1518h-154l1198 1518h154zM2133 386l-28 -121h-146l-62 -267h-155l62 267h-484l35 155l616 535h146l-130 -569h146zM1920 765l-435 -379h347z" />
    <glyph glyph-name="Agrave.ital" horiz-adv-x="1387" 
d="M1229 0h-189l-56 434h-649l-257 -434h-198l907 1507h232zM965 581l-99 745l-444 -745h543zM1038 1692h-125l-205 374h216z" />
    <glyph glyph-name="Aacute.ital" horiz-adv-x="1387" 
d="M1229 0h-189l-56 434h-649l-257 -434h-198l907 1507h232zM965 581l-99 745l-444 -745h543zM1217 2066l-355 -374h-136l254 374h237z" />
    <glyph glyph-name="Acircumflex.ital" horiz-adv-x="1387" 
d="M1229 0h-189l-56 434h-649l-257 -434h-198l907 1507h232zM965 581l-99 745l-444 -745h543zM1218 1687h-132l-135 273l-260 -273h-142l314 379h208z" />
    <glyph glyph-name="Atilde.ital" horiz-adv-x="1387" 
d="M1229 0h-189l-56 434h-649l-257 -434h-198l907 1507h232zM965 581l-99 745l-444 -745h543zM1331 2009q-75 -306 -288 -306q-99 0 -162 79q-71 89 -132 89q-92 0 -130 -172h-123q34 146 110 226t177 80q94 0 160 -78q76 -90 133 -90q94 0 132 172h123z" />
    <glyph glyph-name="Adieresis.ital" horiz-adv-x="1387" 
d="M1229 0h-189l-56 434h-649l-257 -434h-198l907 1507h232zM965 581l-99 745l-444 -745h543zM1275 1916l-43 -184h-201l43 184h201zM840 1916l-43 -184h-201l43 184h201z" />
    <glyph glyph-name="Aring.ital" horiz-adv-x="1387" 
d="M1229 0h-189l-56 434h-649l-257 -434h-198l907 1507h232zM965 581l-99 745l-444 -745h543zM1256 1929q0 -125 -94 -213.5t-225 -88.5q-116 0 -191.5 69t-75.5 176q0 123 93.5 211t225.5 88q118 0 192.5 -68.5t74.5 -173.5zM1124 1925q0 146 -141 146q-82 0 -131.5 -57
t-49.5 -140q0 -147 141 -147q79 0 130 56.5t51 141.5z" />
    <glyph glyph-name="Ccedilla.ital" horiz-adv-x="1350" 
d="M1435 1370l-46 -203h-13q-210 215 -470 215q-262 0 -432 -221.5t-170 -554.5q0 -231 119 -356t332 -125q238 0 479 177h14l-49 -213q-188 -81 -302 -101q-3 -194 -105 -302.5t-275 -108.5q-91 0 -197 30l33 142h9q96 -37 157 -37q116 0 171 57t59 204
q-303 0 -471.5 160.5t-168.5 449.5q0 407 225 679t584 272q266 0 517 -164z" />
    <glyph glyph-name="Egrave.ital" horiz-adv-x="1266" 
d="M1374 1507l-36 -155h-794l-104 -450h774l-36 -155h-774l-137 -592h794l-35 -155h-982l348 1507h982zM933 1692h-125l-205 374h216z" />
    <glyph glyph-name="Eacute.ital" horiz-adv-x="1266" 
d="M1374 1507l-36 -155h-794l-104 -450h774l-36 -155h-774l-137 -592h794l-35 -155h-982l348 1507h982zM1278 2066l-355 -374h-136l254 374h237z" />
    <glyph glyph-name="Ecircumflex.ital" horiz-adv-x="1266" 
d="M1374 1507l-36 -155h-794l-104 -450h774l-36 -155h-774l-137 -592h794l-35 -155h-982l348 1507h982zM1227 1687h-132l-135 273l-260 -273h-142l314 379h208z" />
    <glyph glyph-name="Edieresis.ital" horiz-adv-x="1266" 
d="M1374 1507l-36 -155h-794l-104 -450h774l-36 -155h-774l-137 -592h794l-35 -155h-982l348 1507h982zM1266 1916l-43 -184h-201l43 184h201zM831 1916l-43 -184h-201l43 184h201z" />
    <glyph glyph-name="Igrave.ital" horiz-adv-x="828" 
d="M912 1507l-30 -132h-197l-288 -1243h197l-30 -132h-583l30 132h198l288 1243h-198l30 132h583zM713 1692h-125l-205 374h216z" />
    <glyph glyph-name="Iacute.ital" horiz-adv-x="828" 
d="M912 1507l-30 -132h-197l-288 -1243h197l-30 -132h-583l30 132h198l288 1243h-198l30 132h583zM1058 2066l-355 -374h-136l254 374h237z" />
    <glyph glyph-name="Icircumflex.ital" horiz-adv-x="828" 
d="M912 1507l-30 -132h-197l-288 -1243h197l-30 -132h-583l30 132h198l288 1243h-198l30 132h583zM997 1687h-132l-135 273l-260 -273h-142l314 379h208z" />
    <glyph glyph-name="Idieresis.ital" horiz-adv-x="828" 
d="M912 1507l-30 -132h-197l-288 -1243h197l-30 -132h-583l30 132h198l288 1243h-198l30 132h583zM1026 1916l-43 -184h-201l43 184h201zM591 1916l-43 -184h-201l43 184h201z" />
    <glyph glyph-name="Eth.ital" horiz-adv-x="1545" 
d="M54 0l173 749h-174l33 135h172l144 623h322q418 0 600 -166t182 -443q0 -250 -124.5 -466t-331.5 -324t-562 -108h-434zM554 1356l-109 -472h441l-33 -135h-439l-139 -598h248q425 0 606 214t181 525q0 219 -140.5 342.5t-452.5 123.5h-163z" />
    <glyph glyph-name="Ntilde.ital" horiz-adv-x="1518" 
d="M1540 1507l-348 -1507h-197l-476 1300l-300 -1300h-175l348 1507h240l450 -1229l283 1229h175zM1430 2009q-75 -306 -288 -306q-99 0 -162 79q-71 89 -132 89q-92 0 -130 -172h-123q34 146 110 226t177 80q94 0 160 -78q76 -90 133 -90q94 0 132 172h123z" />
    <glyph glyph-name="Ograve.ital" horiz-adv-x="1547" 
d="M692 -31q-270 0 -426.5 156.5t-156.5 427.5q0 409 230.5 697t580.5 288q270 0 426 -156.5t156 -427.5q0 -410 -228.5 -697.5t-581.5 -287.5zM904 1387q-258 0 -429 -237.5t-171 -582.5q0 -214 104.5 -330.5t299.5 -116.5q259 0 429 240t170 583q0 211 -105.5 327.5
t-297.5 116.5zM1023 1692h-125l-205 374h216z" />
    <glyph glyph-name="Oacute.ital" horiz-adv-x="1547" 
d="M692 -31q-270 0 -426.5 156.5t-156.5 427.5q0 409 230.5 697t580.5 288q270 0 426 -156.5t156 -427.5q0 -410 -228.5 -697.5t-581.5 -287.5zM904 1387q-258 0 -429 -237.5t-171 -582.5q0 -214 104.5 -330.5t299.5 -116.5q259 0 429 240t170 583q0 211 -105.5 327.5
t-297.5 116.5zM1378 2066l-355 -374h-136l254 374h237z" />
    <glyph glyph-name="Ocircumflex.ital" horiz-adv-x="1547" 
d="M692 -31q-270 0 -426.5 156.5t-156.5 427.5q0 409 230.5 697t580.5 288q270 0 426 -156.5t156 -427.5q0 -410 -228.5 -697.5t-581.5 -287.5zM904 1387q-258 0 -429 -237.5t-171 -582.5q0 -214 104.5 -330.5t299.5 -116.5q259 0 429 240t170 583q0 211 -105.5 327.5
t-297.5 116.5zM1287 1687h-132l-135 273l-260 -273h-142l314 379h208z" />
    <glyph glyph-name="Otilde.ital" horiz-adv-x="1547" 
d="M692 -31q-270 0 -426.5 156.5t-156.5 427.5q0 409 230.5 697t580.5 288q270 0 426 -156.5t156 -427.5q0 -410 -228.5 -697.5t-581.5 -287.5zM904 1387q-258 0 -429 -237.5t-171 -582.5q0 -214 104.5 -330.5t299.5 -116.5q259 0 429 240t170 583q0 211 -105.5 327.5
t-297.5 116.5zM1400 2009q-75 -306 -288 -306q-99 0 -162 79q-71 89 -132 89q-92 0 -130 -172h-123q34 146 110 226t177 80q94 0 160 -78q76 -90 133 -90q94 0 132 172h123z" />
    <glyph glyph-name="Odieresis.ital" horiz-adv-x="1547" 
d="M692 -31q-270 0 -426.5 156.5t-156.5 427.5q0 409 230.5 697t580.5 288q270 0 426 -156.5t156 -427.5q0 -410 -228.5 -697.5t-581.5 -287.5zM904 1387q-258 0 -429 -237.5t-171 -582.5q0 -214 104.5 -330.5t299.5 -116.5q259 0 429 240t170 583q0 211 -105.5 327.5
t-297.5 116.5zM1326 1916l-43 -184h-201l43 184h201zM891 1916l-43 -184h-201l43 184h201z" />
    <glyph glyph-name="multiply.ital" horiz-adv-x="1646" 
d="M1399 206l-97 -97l-452 455l-454 -455l-97 97l455 453l-455 453l97 97l454 -454l452 454l97 -97l-454 -453z" />
    <glyph glyph-name="Ugrave.ital" horiz-adv-x="1493" 
d="M1532 1507l-210 -909q-84 -365 -257.5 -497t-434.5 -132q-237 0 -363.5 112.5t-126.5 319.5q0 89 28 210l207 896h188l-212 -917q-23 -99 -23 -171q0 -298 329 -298q135 0 233 50.5t148.5 141t89.5 259.5l216 935h188zM1053 1692h-125l-205 374h216z" />
    <glyph glyph-name="Uacute.ital" horiz-adv-x="1493" 
d="M1532 1507l-210 -909q-84 -365 -257.5 -497t-434.5 -132q-237 0 -363.5 112.5t-126.5 319.5q0 89 28 210l207 896h188l-212 -917q-23 -99 -23 -171q0 -298 329 -298q135 0 233 50.5t148.5 141t89.5 259.5l216 935h188zM1348 2066l-355 -374h-136l254 374h237z" />
    <glyph glyph-name="Ucircumflex.ital" horiz-adv-x="1493" 
d="M1532 1507l-210 -909q-84 -365 -257.5 -497t-434.5 -132q-237 0 -363.5 112.5t-126.5 319.5q0 89 28 210l207 896h188l-212 -917q-23 -99 -23 -171q0 -298 329 -298q135 0 233 50.5t148.5 141t89.5 259.5l216 935h188zM1307 1687h-132l-135 273l-260 -273h-142l314 379
h208z" />
    <glyph glyph-name="Udieresis.ital" horiz-adv-x="1493" 
d="M1532 1507l-210 -909q-84 -365 -257.5 -497t-434.5 -132q-237 0 -363.5 112.5t-126.5 319.5q0 89 28 210l207 896h188l-212 -917q-23 -99 -23 -171q0 -298 329 -298q135 0 233 50.5t148.5 141t89.5 259.5l216 935h188zM1339 1916l-43 -184h-201l43 184h201zM904 1916
l-43 -184h-201l43 184h201z" />
    <glyph glyph-name="Yacute.ital" horiz-adv-x="1292" 
d="M1493 1507l-751 -883l-144 -624h-188l139 604l-341 903h198l270 -725l607 725h210zM1218 2066l-355 -374h-136l254 374h237z" />
    <glyph glyph-name="Thorn.ital" horiz-adv-x="1260" 
d="M304 312l-72 -312h-188l348 1507h188l-60 -261h194q264 0 387.5 -101t123.5 -273q0 -235 -176.5 -397.5t-478.5 -162.5h-266zM485 1095l-147 -634h218q245 0 358 108t113 281q0 245 -348 245h-194z" />
    <glyph glyph-name="agrave.ital" horiz-adv-x="1184" 
d="M891 0h-178l28 128q-169 -111 -252 -134.5t-163 -23.5q-133 0 -218.5 84.5t-85.5 216.5q0 221 190 331.5t667 124.5l8 34q9 38 9 72q0 173 -275 173q-142 0 -352 -81h-8l40 174q201 55 362 55q413 0 413 -289q0 -55 -16 -125zM850 596q-380 -19 -511 -92.5t-131 -206.5
q0 -171 208 -171q144 0 358 143zM805 1316h-125l-205 374h216z" />
    <glyph glyph-name="aacute.ital" horiz-adv-x="1184" 
d="M891 0h-178l28 128q-169 -111 -252 -134.5t-163 -23.5q-133 0 -218.5 84.5t-85.5 216.5q0 221 190 331.5t667 124.5l8 34q9 38 9 72q0 173 -275 173q-142 0 -352 -81h-8l40 174q201 55 362 55q413 0 413 -289q0 -55 -16 -125zM850 596q-380 -19 -511 -92.5t-131 -206.5
q0 -171 208 -171q144 0 358 143zM1046 1690l-355 -374h-136l254 374h237z" />
    <glyph glyph-name="acircumflex.ital" horiz-adv-x="1184" 
d="M891 0h-178l28 128q-169 -111 -252 -134.5t-163 -23.5q-133 0 -218.5 84.5t-85.5 216.5q0 221 190 331.5t667 124.5l8 34q9 38 9 72q0 173 -275 173q-142 0 -352 -81h-8l40 174q201 55 362 55q413 0 413 -289q0 -55 -16 -125zM850 596q-380 -19 -511 -92.5t-131 -206.5
q0 -171 208 -171q144 0 358 143zM1017 1311h-132l-135 273l-260 -273h-142l314 379h208z" />
    <glyph glyph-name="atilde.ital" horiz-adv-x="1184" 
d="M891 0h-178l28 128q-169 -111 -252 -134.5t-163 -23.5q-133 0 -218.5 84.5t-85.5 216.5q0 221 190 331.5t667 124.5l8 34q9 38 9 72q0 173 -275 173q-142 0 -352 -81h-8l40 174q201 55 362 55q413 0 413 -289q0 -55 -16 -125zM850 596q-380 -19 -511 -92.5t-131 -206.5
q0 -171 208 -171q144 0 358 143zM1161 1633q-75 -306 -288 -306q-99 0 -162 79q-71 89 -132 89q-92 0 -130 -172h-123q34 146 110 226t177 80q94 0 160 -78q76 -90 133 -90q94 0 132 172h123z" />
    <glyph glyph-name="adieresis.ital" horiz-adv-x="1184" 
d="M891 0h-178l28 128q-169 -111 -252 -134.5t-163 -23.5q-133 0 -218.5 84.5t-85.5 216.5q0 221 190 331.5t667 124.5l8 34q9 38 9 72q0 173 -275 173q-142 0 -352 -81h-8l40 174q201 55 362 55q413 0 413 -289q0 -55 -16 -125zM850 596q-380 -19 -511 -92.5t-131 -206.5
q0 -171 208 -171q144 0 358 143zM1056 1540l-43 -184h-201l43 184h201zM621 1540l-43 -184h-201l43 184h201z" />
    <glyph glyph-name="aring.ital" horiz-adv-x="1184" 
d="M891 0h-178l28 128q-169 -111 -252 -134.5t-163 -23.5q-133 0 -218.5 84.5t-85.5 216.5q0 221 190 331.5t667 124.5l8 34q9 38 9 72q0 173 -275 173q-142 0 -352 -81h-8l40 174q201 55 362 55q413 0 413 -289q0 -55 -16 -125zM850 596q-380 -19 -511 -92.5t-131 -206.5
q0 -171 208 -171q144 0 358 143zM1038 1600q0 -125 -94 -213.5t-225 -88.5q-116 0 -191.5 69t-75.5 176q0 123 93.5 211t225.5 88q118 0 192.5 -68.5t74.5 -173.5zM906 1596q0 146 -141 146q-82 0 -131.5 -57t-49.5 -140q0 -147 141 -147q79 0 130 56.5t51 141.5z" />
    <glyph glyph-name="ccedilla.ital" horiz-adv-x="1035" 
d="M1077 1037l-42 -189h-9q-107 101 -184.5 130.5t-157.5 29.5q-193 0 -310.5 -157.5t-117.5 -396.5q0 -333 321 -333q159 0 354 122h9l-44 -192q-83 -34 -154 -52q0 -199 -102 -310.5t-278 -111.5q-91 0 -197 30l33 142h9q96 -37 157 -37q116 0 171 57.5t59 205.5
q-10 -1 -31 -1q-233 0 -362 120t-129 342q0 297 173.5 507.5t449.5 210.5q191 0 382 -117z" />
    <glyph glyph-name="egrave.ital" horiz-adv-x="1176" 
d="M1092 551h-835q-5 -46 -5 -86q0 -165 101.5 -255t280.5 -90q218 0 379 113h9l-46 -190q-229 -69 -366 -69q-251 0 -394.5 125t-143.5 350q0 300 176.5 504.5t444.5 204.5q203 0 314 -104.5t111 -299.5q0 -66 -14 -140zM279 676h662q7 41 7 88q0 252 -275 252
q-144 0 -251.5 -92t-142.5 -248zM793 1316h-125l-205 374h216z" />
    <glyph glyph-name="eacute.ital" horiz-adv-x="1176" 
d="M1092 551h-835q-5 -46 -5 -86q0 -165 101.5 -255t280.5 -90q218 0 379 113h9l-46 -190q-229 -69 -366 -69q-251 0 -394.5 125t-143.5 350q0 300 176.5 504.5t444.5 204.5q203 0 314 -104.5t111 -299.5q0 -66 -14 -140zM279 676h662q7 41 7 88q0 252 -275 252
q-144 0 -251.5 -92t-142.5 -248zM1092 1690l-355 -374h-136l254 374h237z" />
    <glyph glyph-name="ecircumflex.ital" horiz-adv-x="1176" 
d="M1092 551h-835q-5 -46 -5 -86q0 -165 101.5 -255t280.5 -90q218 0 379 113h9l-46 -190q-229 -69 -366 -69q-251 0 -394.5 125t-143.5 350q0 300 176.5 504.5t444.5 204.5q203 0 314 -104.5t111 -299.5q0 -66 -14 -140zM279 676h662q7 41 7 88q0 252 -275 252
q-144 0 -251.5 -92t-142.5 -248zM1037 1311h-132l-135 273l-260 -273h-142l314 379h208z" />
    <glyph glyph-name="edieresis.ital" horiz-adv-x="1176" 
d="M1092 551h-835q-5 -46 -5 -86q0 -165 101.5 -255t280.5 -90q218 0 379 113h9l-46 -190q-229 -69 -366 -69q-251 0 -394.5 125t-143.5 350q0 300 176.5 504.5t444.5 204.5q203 0 314 -104.5t111 -299.5q0 -66 -14 -140zM279 676h662q7 41 7 88q0 252 -275 252
q-144 0 -251.5 -92t-142.5 -248zM1080 1540l-43 -184h-201l43 184h201zM645 1540l-43 -184h-201l43 184h201z" />
    <glyph glyph-name="igrave.ital" horiz-adv-x="524" 
d="M480 1126l-260 -1126h-178l260 1126h178zM483 1316h-125l-205 374h216z" />
    <glyph glyph-name="iacute.ital" horiz-adv-x="524" 
d="M480 1126l-260 -1126h-178l260 1126h178zM848 1690l-355 -374h-136l254 374h237z" />
    <glyph glyph-name="icircumflex.ital" horiz-adv-x="524" 
d="M480 1126l-260 -1126h-178l260 1126h178zM757 1311h-132l-135 273l-260 -273h-142l314 379h208z" />
    <glyph glyph-name="idieresis.ital" horiz-adv-x="524" 
d="M480 1126l-260 -1126h-178l260 1126h178zM797 1540l-43 -184h-201l43 184h201zM362 1540l-43 -184h-201l43 184h201z" />
    <glyph glyph-name="eth.ital" horiz-adv-x="1223" 
d="M1168 1454l-209 -107q196 -242 196 -537q0 -365 -178.5 -603t-466.5 -238q-201 0 -320 109.5t-119 297.5q0 267 164.5 439.5t408.5 172.5q167 0 342 -121q-9 220 -169 406l-335 -173v123l257 132q-111 103 -291 203v16h269q101 -76 167 -144l284 147v-123zM976 735
q-126 103 -333 103q-179 0 -283 -121.5t-104 -325.5q0 -130 75.5 -204t204.5 -74q187 0 303 172t137 450z" />
    <glyph glyph-name="ntilde.ital" horiz-adv-x="1265" 
d="M971 0h-178l148 642q28 121 28 192q0 166 -184 166q-151 0 -371 -153l-196 -847h-178l260 1126h178l-31 -135q244 167 409 167q139 0 219.5 -76t80.5 -213q0 -68 -24 -172zM1210 1633q-75 -306 -288 -306q-99 0 -162 79q-71 89 -132 89q-92 0 -130 -172h-123
q34 146 110 226t177 80q94 0 160 -78q76 -90 133 -90q94 0 132 172h123z" />
    <glyph glyph-name="ograve.ital" horiz-adv-x="1207" 
d="M519 -32q-209 0 -328 119.5t-119 329.5q0 305 175 523t445 218q207 0 325 -121.5t118 -330.5q0 -307 -175.5 -522.5t-440.5 -215.5zM673 1013q-186 0 -301.5 -170.5t-115.5 -421.5q0 -308 277 -308q187 0 302.5 170.5t115.5 422.5q0 307 -278 307zM773 1316h-125
l-205 374h216z" />
    <glyph glyph-name="oacute.ital" horiz-adv-x="1207" 
d="M519 -32q-209 0 -328 119.5t-119 329.5q0 305 175 523t445 218q207 0 325 -121.5t118 -330.5q0 -307 -175.5 -522.5t-440.5 -215.5zM673 1013q-186 0 -301.5 -170.5t-115.5 -421.5q0 -308 277 -308q187 0 302.5 170.5t115.5 422.5q0 307 -278 307zM1148 1690l-355 -374
h-136l254 374h237z" />
    <glyph glyph-name="ocircumflex.ital" horiz-adv-x="1207" 
d="M519 -32q-209 0 -328 119.5t-119 329.5q0 305 175 523t445 218q207 0 325 -121.5t118 -330.5q0 -307 -175.5 -522.5t-440.5 -215.5zM673 1013q-186 0 -301.5 -170.5t-115.5 -421.5q0 -308 277 -308q187 0 302.5 170.5t115.5 422.5q0 307 -278 307zM1067 1311h-132
l-135 273l-260 -273h-142l314 379h208z" />
    <glyph glyph-name="otilde.ital" horiz-adv-x="1207" 
d="M519 -32q-209 0 -328 119.5t-119 329.5q0 305 175 523t445 218q207 0 325 -121.5t118 -330.5q0 -307 -175.5 -522.5t-440.5 -215.5zM673 1013q-186 0 -301.5 -170.5t-115.5 -421.5q0 -308 277 -308q187 0 302.5 170.5t115.5 422.5q0 307 -278 307zM1140 1633
q-75 -306 -288 -306q-99 0 -162 79q-71 89 -132 89q-92 0 -130 -172h-123q34 146 110 226t177 80q94 0 160 -78q76 -90 133 -90q94 0 132 172h123z" />
    <glyph glyph-name="odieresis.ital" horiz-adv-x="1207" 
d="M519 -32q-209 0 -328 119.5t-119 329.5q0 305 175 523t445 218q207 0 325 -121.5t118 -330.5q0 -307 -175.5 -522.5t-440.5 -215.5zM673 1013q-186 0 -301.5 -170.5t-115.5 -421.5q0 -308 277 -308q187 0 302.5 170.5t115.5 422.5q0 307 -278 307zM1096 1540l-43 -184
h-201l43 184h201zM661 1540l-43 -184h-201l43 184h201z" />
    <glyph glyph-name="divide.ital" horiz-adv-x="1646" 
d="M960 1036h-222v259h222v-259zM1477 588h-1256v142h1256v-142zM960 23h-222v259h222v-259z" />
    <glyph glyph-name="ugrave.ital" horiz-adv-x="1263" 
d="M1222 1126l-260 -1126h-178l31 136q-240 -167 -407 -167q-139 0 -219 76t-80 212q0 73 23 172l161 697h178l-148 -642q-27 -117 -27 -192q0 -165 182 -165q150 0 370 152l196 847h178zM843 1316h-125l-205 374h216z" />
    <glyph glyph-name="uacute.ital" horiz-adv-x="1263" 
d="M1222 1126l-260 -1126h-178l31 136q-240 -167 -407 -167q-139 0 -219 76t-80 212q0 73 23 172l161 697h178l-148 -642q-27 -117 -27 -192q0 -165 182 -165q150 0 370 152l196 847h178zM1178 1690l-355 -374h-136l254 374h237z" />
    <glyph glyph-name="ucircumflex.ital" horiz-adv-x="1263" 
d="M1222 1126l-260 -1126h-178l31 136q-240 -167 -407 -167q-139 0 -219 76t-80 212q0 73 23 172l161 697h178l-148 -642q-27 -117 -27 -192q0 -165 182 -165q150 0 370 152l196 847h178zM1107 1311h-132l-135 273l-260 -273h-142l314 379h208z" />
    <glyph glyph-name="udieresis.ital" horiz-adv-x="1263" 
d="M1222 1126l-260 -1126h-178l31 136q-240 -167 -407 -167q-139 0 -219 76t-80 212q0 73 23 172l161 697h178l-148 -642q-27 -117 -27 -192q0 -165 182 -165q150 0 370 152l196 847h178zM1146 1540l-43 -184h-201l43 184h201zM711 1540l-43 -184h-201l43 184h201z" />
    <glyph glyph-name="yacute.ital" horiz-adv-x="1154" 
d="M1248 1126l-1015 -1543h-196l326 477l-204 1066h187l161 -852l548 852h193zM1088 1690l-355 -374h-136l254 374h237z" />
    <glyph glyph-name="thorn.ital" horiz-adv-x="1242" 
d="M234 69l-111 -486h-179l460 1991h178l-133 -573q141 99 221.5 128t166.5 29q157 0 249 -112t92 -299q0 -322 -177 -545.5t-440 -223.5q-176 0 -327 91zM416 860l-151 -659q140 -74 289 -74q199 0 318.5 171t119.5 435q0 267 -238 267q-134 0 -338 -140z" />
    <glyph glyph-name="ydieresis.ital" horiz-adv-x="1154" 
d="M1248 1126l-1015 -1543h-196l326 477l-204 1066h187l161 -852l548 852h193zM1066 1540l-43 -184h-201l43 184h201zM631 1540l-43 -184h-201l43 184h201z" />
    <glyph glyph-name="Scaron.ital" horiz-adv-x="1299" 
d="M1307 1394l-48 -205h-14q-193 195 -483 195q-166 0 -265.5 -82t-99.5 -212q0 -145 175 -201q60 -15 150 -40l171 -48q82 -23 136.5 -56t89 -73t51.5 -88.5t17 -105.5q0 -213 -171.5 -359t-446.5 -146t-556 153l46 223h13q101 -105 240 -165.5t277 -60.5q187 0 293 86.5
t106 226.5q0 135 -155 191q-190 46 -334.5 87t-223 125.5t-78.5 211.5q0 205 163 344t416 139q267 0 531 -140zM1210 2066l-314 -379h-208l-147 379h132l135 -273l260 273h142z" />
    <glyph glyph-name="Ydieresis.ital" horiz-adv-x="1292" 
d="M1493 1507l-751 -883l-144 -624h-188l139 604l-341 903h198l270 -725l607 725h210zM1219 1916l-43 -184h-201l43 184h201zM784 1916l-43 -184h-201l43 184h201z" />
    <glyph glyph-name="Zcaron.ital" horiz-adv-x="1333" 
d="M1436 1507l-36 -156l-1189 -1196h934l-35 -155h-1160l37 161l1178 1191h-869l36 155h1104zM1280 2066l-314 -379h-208l-147 379h132l135 -273l260 273h142z" />
    <glyph glyph-name="uni203E.ital" horiz-adv-x="1272" 
d="M1551 1798l-24 -102h-1280l24 102h1280z" />
    <glyph glyph-name="scaron.ital" horiz-adv-x="1017" 
d="M1000 1046l-40 -181h-8q-170 149 -371 149q-119 0 -189.5 -53t-70.5 -147q0 -98 154 -146l210 -59q114 -32 171.5 -95t57.5 -157q0 -167 -134 -276t-351 -109q-230 0 -424 117l43 193h8q188 -170 398 -170q274 0 274 208q0 99 -159 145q-159 40 -244.5 70.5t-137 90.5
t-51.5 148q0 161 129 271t336 110q229 0 399 -109zM1020 1690l-314 -379h-208l-147 379h132l135 -273l260 273h142z" />
    <glyph glyph-name="trademark.ital" horiz-adv-x="1840" 
d="M1827 803h-124v576l-207 -425h-79l-214 442v-593h-123v704h188l191 -411l191 411h177v-704zM915 1390h-229v-587h-127v587h-229v117h585v-117z" />
    <glyph glyph-name="zcaron.ital" horiz-adv-x="1035" 
d="M1085 1126l-26 -111l-852 -879h667l-32 -136h-897l26 119l844 871h-629l32 136h867zM1060 1690l-314 -379h-208l-147 379h132l135 -273l260 273h142z" />
    <glyph glyph-name="zero.ital.zero" horiz-adv-x="1272" 
d="M1281 1629l-149 -235q87 -117 87 -328q0 -252 -85 -536.5t-230.5 -422.5t-360.5 -138q-167 0 -269 72l-119 -187h-116l163 257q-87 116 -87 325q0 250 85 536t231.5 425.5t362.5 139.5q164 0 266 -73l105 165h116zM968 1318q-64 73 -190 73q-147 0 -244 -110.5
t-165.5 -387t-68.5 -471.5q0 -76 15 -133zM1019 1216l-653 -1029q64 -72 192 -72q145 0 242.5 109.5t165.5 383.5t68 478q0 74 -15 130z" />
    <glyph glyph-name="Euro.ital" horiz-adv-x="1272" 
d="M1297 1419l-43 -179h-11q-183 147 -364 147q-298 0 -427 -412h565l-26 -116h-570q-22 -98 -33 -199h467l-27 -116h-446q0 -425 324 -425q186 0 375 112h11l-48 -187q-179 -73 -352 -73q-485 0 -485 573h-164l27 116h145q10 112 32 199h-131l26 116h133q168 560 619 560
q209 0 403 -116z" />
    <glyph glyph-name="uni2126.ital" horiz-adv-x="1632" 
d="M1043 286l-27 -124h416l-37 -162h-570l88 382q457 215 457 593q0 188 -116 300t-304 112q-253 0 -417.5 -180.5t-164.5 -436.5q0 -233 225 -388l-88 -382h-530l37 162h376l33 140q-245 173 -245 463q0 307 221.5 540t570.5 233q260 0 427 -152t167 -398q0 -449 -519 -702
z" />
    <glyph glyph-name="minute.ital" horiz-adv-x="530" 
d="M596 1574l-184 -585h-126l98 585h212z" />
    <glyph glyph-name="second.ital" horiz-adv-x="920" 
d="M981 1574l-184 -585h-122l98 585h208zM595 1574l-184 -585h-122l98 585h208z" />
    <glyph glyph-name="uniFB00.ital" horiz-adv-x="1380" 
d="M1690 1559l-37 -154h-6q-86 31 -168 31q-128 0 -193.5 -59t-99.5 -207l-10 -44h345l-32 -136h-338l-223 -990h-178l224 994h-512l-224 -994h-178l223 990h-130l32 136h129l11 51q88 408 458 408q81 0 217 -26l-37 -154h-6q-86 31 -168 31q-128 0 -193.5 -59t-99.5 -207
l-10 -44h518l11 51q88 408 458 408q81 0 217 -26z" />
    <glyph glyph-name="uniFB03.ital" horiz-adv-x="1901" 
d="M1855 1126l-258 -1126h-178l228 994h-495l-224 -994h-178l224 994h-512l-224 -994h-178l223 990h-130l32 136h129l11 51q88 408 458 408q81 0 217 -26l-37 -154h-6q-86 31 -168 31q-128 0 -193.5 -59t-99.5 -207l-10 -44h518l12 53q92 406 458 406q66 0 210 -27l-36 -155
h-6q-91 33 -162 33q-128 0 -193 -58.5t-100 -205.5l-11 -46h679zM1963 1540l-43 -184h-198l43 184h198z" />
    <glyph glyph-name="uniFB04.ital" horiz-adv-x="1908" 
d="M1966 1575l-362 -1575h-178l324 1412q-91 28 -218 28q-160 0 -235.5 -59t-111.5 -213l-10 -42h328l-31 -132h-320l-224 -994h-178l224 994h-512l-224 -994h-178l223 990h-130l32 136h129l11 51q88 408 458 408q81 0 217 -26l-37 -154h-6q-86 31 -168 31
q-128 0 -193.5 -59t-99.5 -207l-10 -44h517l11 46q99 413 530 413q75 0 230 -24z" />
    <glyph glyph-name="amacron.ital" horiz-adv-x="1184" 
d="M891 0h-178l28 128q-169 -111 -252 -134.5t-163 -23.5q-133 0 -218.5 84.5t-85.5 216.5q0 221 190 331.5t667 124.5l8 34q9 38 9 72q0 173 -275 173q-142 0 -352 -81h-8l40 174q201 55 362 55q413 0 413 -289q0 -55 -16 -125zM850 596q-380 -19 -511 -92.5t-131 -206.5
q0 -171 208 -171q144 0 358 143zM1131 1547l-33 -138h-777l33 138h777z" />
    <glyph glyph-name="imacron.ital" horiz-adv-x="524" 
d="M480 1126l-260 -1126h-178l260 1126h178zM853 1547l-33 -138h-777l33 138h777z" />
    <glyph glyph-name="umacron.ital" horiz-adv-x="1263" 
d="M1222 1126l-260 -1126h-178l31 136q-240 -167 -407 -167q-139 0 -219 76t-80 212q0 73 23 172l161 697h178l-148 -642q-27 -117 -27 -192q0 -165 182 -165q150 0 370 152l196 847h178zM1209 1547l-33 -138h-777l33 138h777z" />
    <glyph glyph-name="emacron.ital" horiz-adv-x="1176" 
d="M1092 551h-835q-5 -46 -5 -86q0 -165 101.5 -255t280.5 -90q218 0 379 113h9l-46 -190q-229 -69 -366 -69q-251 0 -394.5 125t-143.5 350q0 300 176.5 504.5t444.5 204.5q203 0 314 -104.5t111 -299.5q0 -66 -14 -140zM279 676h662q7 41 7 88q0 252 -275 252
q-144 0 -251.5 -92t-142.5 -248zM1149 1547l-33 -138h-777l33 138h777z" />
    <glyph glyph-name="omacron.ital" horiz-adv-x="1207" 
d="M519 -32q-209 0 -328 119.5t-119 329.5q0 305 175 523t445 218q207 0 325 -121.5t118 -330.5q0 -307 -175.5 -522.5t-440.5 -215.5zM673 1013q-186 0 -301.5 -170.5t-115.5 -421.5q0 -308 277 -308q187 0 302.5 170.5t115.5 422.5q0 307 -278 307zM1159 1547l-33 -138
h-777l33 138h777z" />
    <glyph glyph-name="Amacron.ital" horiz-adv-x="1387" 
d="M1229 0h-189l-56 434h-649l-257 -434h-198l907 1507h232zM965 581l-99 745l-444 -745h543zM1342 1910l-33 -138h-777l33 138h777z" />
    <glyph glyph-name="Imacron.ital" horiz-adv-x="828" 
d="M912 1507l-30 -132h-197l-288 -1243h197l-30 -132h-583l30 132h198l288 1243h-198l30 132h583zM1087 1910l-33 -138h-777l33 138h777z" />
    <glyph glyph-name="Umacron.ital" horiz-adv-x="1493" 
d="M1532 1507l-210 -909q-84 -365 -257.5 -497t-434.5 -132q-237 0 -363.5 112.5t-126.5 319.5q0 89 28 210l207 896h188l-212 -917q-23 -99 -23 -171q0 -298 329 -298q135 0 233 50.5t148.5 141t89.5 259.5l216 935h188zM1408 1910l-33 -138h-777l33 138h777z" />
    <glyph glyph-name="Emacron.ital" horiz-adv-x="1266" 
d="M1374 1507l-36 -155h-794l-104 -450h774l-36 -155h-774l-137 -592h794l-35 -155h-982l348 1507h982zM1328 1910l-33 -138h-777l33 138h777z" />
    <glyph glyph-name="Omacron.ital" horiz-adv-x="1547" 
d="M692 -31q-270 0 -426.5 156.5t-156.5 427.5q0 409 230.5 697t580.5 288q270 0 426 -156.5t156 -427.5q0 -410 -228.5 -697.5t-581.5 -287.5zM904 1387q-258 0 -429 -237.5t-171 -582.5q0 -214 104.5 -330.5t299.5 -116.5q259 0 429 240t170 583q0 211 -105.5 327.5
t-297.5 116.5zM1388 1910l-33 -138h-777l33 138h777z" />
    <glyph glyph-name="oneeighth.ital" horiz-adv-x="2212" 
d="M797 678l-27 -114h-577l25 114h212l140 608h-212l24 104q138 1 194.5 35.5t76.5 96.5h132l-196 -844h208zM1853 1518l-1198 -1518h-154l1198 1518h154zM1988 495q150 -72 150 -202t-113 -222.5t-282 -92.5q-159 0 -255 73t-96 191q0 193 226 278q-120 67 -120 177
q0 120 103.5 199t261.5 79q143 0 235 -64t92 -166q0 -77 -54.5 -145t-147.5 -105zM2029 737q0 57 -47 91.5t-127 34.5q-83 0 -139 -40t-56 -103q0 -101 228 -179q141 74 141 196zM1719 471q-164 -73 -164 -219q0 -73 54.5 -116.5t141.5 -43.5q99 0 162 52t63 134
q0 44 -39.5 85t-217.5 108z" />
    <glyph glyph-name="threeeighths.ital" horiz-adv-x="2212" 
d="M713 1079q164 -51 164 -201q0 -142 -116 -238t-289 -96q-165 0 -330 87l30 139h14q119 -98 289 -98q105 0 171.5 59t66.5 158q0 128 -191 128h-88l29 123h61q110 0 175.5 41.5t65.5 114.5q0 113 -181 113q-137 0 -282 -67h-16l34 146q142 49 276 49q152 0 241.5 -60
t89.5 -160q0 -85 -61.5 -151.5t-152.5 -86.5zM1853 1518l-1198 -1518h-154l1198 1518h154zM1988 495q150 -72 150 -202t-113 -222.5t-282 -92.5q-159 0 -255 73t-96 191q0 193 226 278q-120 67 -120 177q0 120 103.5 199t261.5 79q143 0 235 -64t92 -166q0 -77 -54.5 -145
t-147.5 -105zM2029 737q0 57 -47 91.5t-127 34.5q-83 0 -139 -40t-56 -103q0 -101 228 -179q141 74 141 196zM1719 471q-164 -73 -164 -219q0 -73 54.5 -116.5t141.5 -43.5q99 0 162 52t63 134q0 44 -39.5 85t-217.5 108z" />
    <glyph glyph-name="fiveeighths.ital" horiz-adv-x="2212" 
d="M1008 1518l-29 -129h-473l-53 -226q44 2 63 2q168 0 268.5 -70t100.5 -192q0 -154 -114.5 -256.5t-294.5 -102.5q-167 0 -326 84l31 137h13q129 -93 287 -93q106 0 172.5 60t66.5 150q0 158 -252 158q-55 0 -206 -24l114 502h632zM1853 1518l-1198 -1518h-154l1198 1518
h154zM1988 495q150 -72 150 -202t-113 -222.5t-282 -92.5q-159 0 -255 73t-96 191q0 193 226 278q-120 67 -120 177q0 120 103.5 199t261.5 79q143 0 235 -64t92 -166q0 -77 -54.5 -145t-147.5 -105zM2029 737q0 57 -47 91.5t-127 34.5q-83 0 -139 -40t-56 -103
q0 -101 228 -179q141 74 141 196zM1719 471q-164 -73 -164 -219q0 -73 54.5 -116.5t141.5 -43.5q99 0 162 52t63 134q0 44 -39.5 85t-217.5 108z" />
    <glyph glyph-name="seveneighths.ital" horiz-adv-x="2212" 
d="M1056 1518l-35 -147l-626 -808h-184l649 826h-553l30 129h719zM1823 1518l-1198 -1518h-154l1198 1518h154zM1988 495q150 -72 150 -202t-113 -222.5t-282 -92.5q-159 0 -255 73t-96 191q0 193 226 278q-120 67 -120 177q0 120 103.5 199t261.5 79q143 0 235 -64t92 -166
q0 -77 -54.5 -145t-147.5 -105zM2029 737q0 57 -47 91.5t-127 34.5q-83 0 -139 -40t-56 -103q0 -101 228 -179q141 74 141 196zM1719 471q-164 -73 -164 -219q0 -73 54.5 -116.5t141.5 -43.5q99 0 162 52t63 134q0 44 -39.5 85t-217.5 108z" />
    <glyph glyph-name="onethird.ital" horiz-adv-x="2212" 
d="M797 678l-27 -114h-577l25 114h212l140 608h-212l24 104q138 1 194.5 35.5t76.5 96.5h132l-196 -844h208zM1853 1518l-1198 -1518h-154l1198 1518h154zM1945 515q164 -51 164 -201q0 -142 -116 -238t-289 -96q-165 0 -330 87l30 139h14q119 -98 289 -98q105 0 171.5 59
t66.5 158q0 128 -191 128h-88l29 123h61q110 0 175.5 41.5t65.5 114.5q0 113 -181 113q-137 0 -282 -67h-16l34 146q142 49 276 49q152 0 241.5 -60t89.5 -160q0 -85 -61.5 -151.5t-152.5 -86.5z" />
    <glyph glyph-name="twothirds.ital" horiz-adv-x="2212" 
d="M329 693h507l-29 -129h-707l33 145q317 204 470 329t153 242q0 59 -48.5 94t-127.5 35q-121 0 -283 -71h-17l35 149q143 50 279 50q149 0 238 -65.5t89 -177.5q0 -156 -151.5 -290.5t-440.5 -310.5zM1853 1518l-1198 -1518h-154l1198 1518h154zM1945 515
q164 -51 164 -201q0 -142 -116 -238t-289 -96q-165 0 -330 87l30 139h14q119 -98 289 -98q105 0 171.5 59t66.5 158q0 128 -191 128h-88l29 123h61q110 0 175.5 41.5t65.5 114.5q0 113 -181 113q-137 0 -282 -67h-16l34 146q142 49 276 49q152 0 241.5 -60t89.5 -160
q0 -85 -61.5 -151.5t-152.5 -86.5z" />
    <glyph glyph-name="uni2070.ital" horiz-adv-x="950" 
d="M485 544q-307 0 -307 309q0 265 115.5 474.5t344.5 209.5q305 0 305 -312q0 -254 -114 -467.5t-344 -213.5zM630 1414q-162 0 -227.5 -205t-65.5 -365q0 -177 157 -177q159 0 224.5 205t65.5 364q0 178 -154 178z" />
    <glyph glyph-name="uni2074.ital" horiz-adv-x="950" 
d="M931 950l-28 -121h-146l-62 -267h-155l62 267h-484l35 155l616 535h146l-130 -569h146zM718 1329l-435 -379h347z" />
    <glyph glyph-name="uni2075.ital" horiz-adv-x="950" 
d="M1008 1518l-29 -129h-473l-53 -226q44 2 63 2q168 0 268.5 -70t100.5 -192q0 -154 -114.5 -256.5t-294.5 -102.5q-167 0 -326 84l31 137h13q129 -93 287 -93q106 0 172.5 60t66.5 150q0 158 -252 158q-55 0 -206 -24l114 502h632z" />
    <glyph glyph-name="uni2076.ital" horiz-adv-x="950" 
d="M929 1507l-30 -129h-12q-68 30 -152 30q-121 0 -213 -72t-136 -201q114 48 210 48q144 0 232.5 -73t88.5 -197q0 -155 -115.5 -262t-286.5 -107q-153 0 -242.5 89.5t-89.5 244.5q0 160 65.5 317.5t195.5 248.5t313 91q93 0 172 -28zM360 1017q-15 -73 -15 -141
q0 -210 180 -210q101 0 164 67t63 168q0 76 -54 118t-146 42q-84 0 -192 -44z" />
    <glyph glyph-name="uni2077.ital" horiz-adv-x="950" 
d="M1026 1518l-35 -147l-626 -808h-184l649 826h-553l30 129h719z" />
    <glyph glyph-name="uni2078.ital" horiz-adv-x="950" 
d="M756 1059q150 -72 150 -202t-113 -222.5t-282 -92.5q-159 0 -255 73t-96 191q0 193 226 278q-120 67 -120 177q0 120 103.5 199t261.5 79q143 0 235 -64t92 -166q0 -77 -54.5 -145t-147.5 -105zM797 1301q0 57 -47 91.5t-127 34.5q-83 0 -139 -40t-56 -103
q0 -101 228 -179q141 74 141 196zM487 1035q-164 -73 -164 -219q0 -73 54.5 -116.5t141.5 -43.5q99 0 162 52t63 134q0 44 -39.5 85t-217.5 108z" />
    <glyph glyph-name="uni2079.ital" horiz-adv-x="950" 
d="M181 574l31 130h10q71 -31 155 -31q121 0 214 72t140 201q-111 -47 -210 -47q-142 0 -229.5 70.5t-87.5 190.5q0 159 117 268t290 109q152 0 239.5 -87t87.5 -239q0 -170 -72.5 -331t-202.5 -247.5t-309 -86.5q-90 0 -173 28zM777 1212q0 203 -177 203
q-102 0 -166.5 -68.5t-64.5 -169.5q0 -156 198 -156q81 0 194 45q16 72 16 146z" />
    <glyph glyph-name="uni2080.ital" horiz-adv-x="950" 
d="M455 -20q-307 0 -307 309q0 265 115.5 474.5t344.5 209.5q305 0 305 -312q0 -254 -114 -467.5t-344 -213.5zM600 850q-162 0 -227.5 -205t-65.5 -365q0 -177 157 -177q159 0 224.5 205t65.5 364q0 178 -154 178z" />
    <glyph glyph-name="uni2081.ital" horiz-adv-x="950" 
d="M767 114l-27 -114h-577l25 114h212l140 608h-212l24 104q138 1 194.5 35.5t76.5 96.5h132l-196 -844h208z" />
    <glyph glyph-name="uni2082.ital" horiz-adv-x="950" 
d="M299 129h507l-29 -129h-707l33 145q317 204 470 329t153 242q0 59 -48.5 94t-127.5 35q-121 0 -283 -71h-17l35 149q143 50 279 50q149 0 238 -65.5t89 -177.5q0 -156 -151.5 -290.5t-440.5 -310.5z" />
    <glyph glyph-name="uni2083.ital" horiz-adv-x="950" 
d="M683 515q164 -51 164 -201q0 -142 -116 -238t-289 -96q-165 0 -330 87l30 139h14q119 -98 289 -98q105 0 171.5 59t66.5 158q0 128 -191 128h-88l29 123h61q110 0 175.5 41.5t65.5 114.5q0 113 -181 113q-137 0 -282 -67h-16l34 146q142 49 276 49q152 0 241.5 -60
t89.5 -160q0 -85 -61.5 -151.5t-152.5 -86.5z" />
    <glyph glyph-name="uni2084.ital" horiz-adv-x="950" 
d="M901 386l-28 -121h-146l-62 -267h-155l62 267h-484l35 155l616 535h146l-130 -569h146zM688 765l-435 -379h347z" />
    <glyph glyph-name="uni2085.ital" horiz-adv-x="950" 
d="M978 954l-29 -129h-473l-53 -226q44 2 63 2q168 0 268.5 -70t100.5 -192q0 -154 -114.5 -256.5t-294.5 -102.5q-167 0 -326 84l31 137h13q129 -93 287 -93q106 0 172.5 60t66.5 150q0 158 -252 158q-55 0 -206 -24l114 502h632z" />
    <glyph glyph-name="uni2086.ital" horiz-adv-x="950" 
d="M899 943l-30 -129h-12q-68 30 -152 30q-121 0 -213 -72t-136 -201q114 48 210 48q144 0 232.5 -73t88.5 -197q0 -155 -115.5 -262t-286.5 -107q-153 0 -242.5 89.5t-89.5 244.5q0 160 65.5 317.5t195.5 248.5t313 91q93 0 172 -28zM330 453q-15 -73 -15 -141
q0 -210 180 -210q101 0 164 67t63 168q0 76 -54 118t-146 42q-84 0 -192 -44z" />
    <glyph glyph-name="uni2087.ital" horiz-adv-x="950" 
d="M996 954l-35 -147l-626 -808h-184l649 826h-553l30 129h719z" />
    <glyph glyph-name="uni2088.ital" horiz-adv-x="950" 
d="M726 495q150 -72 150 -202t-113 -222.5t-282 -92.5q-159 0 -255 73t-96 191q0 193 226 278q-120 67 -120 177q0 120 103.5 199t261.5 79q143 0 235 -64t92 -166q0 -77 -54.5 -145t-147.5 -105zM767 737q0 57 -47 91.5t-127 34.5q-83 0 -139 -40t-56 -103q0 -101 228 -179
q141 74 141 196zM457 471q-164 -73 -164 -219q0 -73 54.5 -116.5t141.5 -43.5q99 0 162 52t63 134q0 44 -39.5 85t-217.5 108z" />
    <glyph glyph-name="uni2089.ital" horiz-adv-x="950" 
d="M151 10l31 130h10q71 -31 155 -31q121 0 214 72t140 201q-111 -47 -210 -47q-142 0 -229.5 70.5t-87.5 190.5q0 159 117 268t290 109q152 0 239.5 -87t87.5 -239q0 -170 -72.5 -331t-202.5 -247.5t-309 -86.5q-90 0 -173 28zM747 648q0 203 -177 203q-102 0 -166.5 -68.5
t-64.5 -169.5q0 -156 198 -156q81 0 194 45q16 72 16 146z" />
    <glyph glyph-name="uni01CD.ital" horiz-adv-x="1387" 
d="M1229 0h-189l-56 434h-649l-257 -434h-198l907 1507h232zM965 581l-99 745l-444 -745h543zM1332 2066l-314 -379h-208l-147 379h132l135 -273l260 273h142z" />
    <glyph glyph-name="Ecaron.ital" horiz-adv-x="1266" 
d="M1374 1507l-36 -155h-794l-104 -450h774l-36 -155h-774l-137 -592h794l-35 -155h-982l348 1507h982zM1300 2066l-314 -379h-208l-147 379h132l135 -273l260 273h142z" />
    <glyph glyph-name="glyph595" horiz-adv-x="1266" 
d="M1374 1507l-36 -155h-794l-104 -450h774l-36 -155h-774l-137 -592h794l-35 -155h-982l348 1507h982zM1226 1929q0 -125 -94 -213.5t-225 -88.5q-116 0 -191.5 69t-75.5 176q0 123 93.5 211t225.5 88q118 0 192.5 -68.5t74.5 -173.5zM1094 1925q0 146 -141 146
q-82 0 -131.5 -57t-49.5 -140q0 -147 141 -147q79 0 130 56.5t51 141.5z" />
    <glyph glyph-name="uni1EBC.ital" horiz-adv-x="1266" 
d="M1374 1507l-36 -155h-794l-104 -450h774l-36 -155h-774l-137 -592h794l-35 -155h-982l348 1507h982zM1330 2009q-75 -306 -288 -306q-99 0 -162 79q-71 89 -132 89q-92 0 -130 -172h-123q34 146 110 226t177 80q94 0 160 -78q76 -90 133 -90q94 0 132 172h123z" />
    <glyph glyph-name="uni01CF.ital" horiz-adv-x="828" 
d="M912 1507l-30 -132h-197l-288 -1243h197l-30 -132h-583l30 132h198l288 1243h-198l30 132h583zM1060 2066l-314 -379h-208l-147 379h132l135 -273l260 273h142z" />
    <glyph glyph-name="glyph598" horiz-adv-x="828" 
d="M912 1507l-30 -132h-197l-288 -1243h197l-30 -132h-583l30 132h198l288 1243h-198l30 132h583zM968 1929q0 -125 -94 -213.5t-225 -88.5q-116 0 -191.5 69t-75.5 176q0 123 93.5 211t225.5 88q118 0 192.5 -68.5t74.5 -173.5zM836 1925q0 146 -141 146q-82 0 -131.5 -57
t-49.5 -140q0 -147 141 -147q79 0 130 56.5t51 141.5z" />
    <glyph glyph-name="Itilde.ital" horiz-adv-x="828" 
d="M912 1507l-30 -132h-197l-288 -1243h197l-30 -132h-583l30 132h198l288 1243h-198l30 132h583zM1100 2009q-75 -306 -288 -306q-99 0 -162 79q-71 89 -132 89q-92 0 -130 -172h-123q34 146 110 226t177 80q94 0 160 -78q76 -90 133 -90q94 0 132 172h123z" />
    <glyph glyph-name="uni01D1.ital" horiz-adv-x="1547" 
d="M692 -31q-270 0 -426.5 156.5t-156.5 427.5q0 409 230.5 697t580.5 288q270 0 426 -156.5t156 -427.5q0 -410 -228.5 -697.5t-581.5 -287.5zM904 1387q-258 0 -429 -237.5t-171 -582.5q0 -214 104.5 -330.5t299.5 -116.5q259 0 429 240t170 583q0 211 -105.5 327.5
t-297.5 116.5zM1360 2066l-314 -379h-208l-147 379h132l135 -273l260 273h142z" />
    <glyph glyph-name="glyph601" horiz-adv-x="1547" 
d="M692 -31q-270 0 -426.5 156.5t-156.5 427.5q0 409 230.5 697t580.5 288q270 0 426 -156.5t156 -427.5q0 -410 -228.5 -697.5t-581.5 -287.5zM904 1387q-258 0 -429 -237.5t-171 -582.5q0 -214 104.5 -330.5t299.5 -116.5q259 0 429 240t170 583q0 211 -105.5 327.5
t-297.5 116.5zM1276 1929q0 -125 -94 -213.5t-225 -88.5q-116 0 -191.5 69t-75.5 176q0 123 93.5 211t225.5 88q118 0 192.5 -68.5t74.5 -173.5zM1144 1925q0 146 -141 146q-82 0 -131.5 -57t-49.5 -140q0 -147 141 -147q79 0 130 56.5t51 141.5z" />
    <glyph glyph-name="uni01D3.ital" horiz-adv-x="1493" 
d="M1532 1507l-210 -909q-84 -365 -257.5 -497t-434.5 -132q-237 0 -363.5 112.5t-126.5 319.5q0 89 28 210l207 896h188l-212 -917q-23 -99 -23 -171q0 -298 329 -298q135 0 233 50.5t148.5 141t89.5 259.5l216 935h188zM1382 2066l-314 -379h-208l-147 379h132l135 -273
l260 273h142z" />
    <glyph glyph-name="Uring.ital" horiz-adv-x="1493" 
d="M1532 1507l-210 -909q-84 -365 -257.5 -497t-434.5 -132q-237 0 -363.5 112.5t-126.5 319.5q0 89 28 210l207 896h188l-212 -917q-23 -99 -23 -171q0 -298 329 -298q135 0 233 50.5t148.5 141t89.5 259.5l216 935h188zM1312 1929q0 -125 -94 -213.5t-225 -88.5
q-116 0 -191.5 69t-75.5 176q0 123 93.5 211t225.5 88q118 0 192.5 -68.5t74.5 -173.5zM1180 1925q0 146 -141 146q-82 0 -131.5 -57t-49.5 -140q0 -147 141 -147q79 0 130 56.5t51 141.5z" />
    <glyph glyph-name="Utilde.ital" horiz-adv-x="1493" 
d="M1532 1507l-210 -909q-84 -365 -257.5 -497t-434.5 -132q-237 0 -363.5 112.5t-126.5 319.5q0 89 28 210l207 896h188l-212 -917q-23 -99 -23 -171q0 -298 329 -298q135 0 233 50.5t148.5 141t89.5 259.5l216 935h188zM1400 2009q-75 -306 -288 -306q-99 0 -162 79
q-71 89 -132 89q-92 0 -130 -172h-123q34 146 110 226t177 80q94 0 160 -78q76 -90 133 -90q94 0 132 172h123z" />
    <glyph glyph-name="uni01CE.ital" horiz-adv-x="1184" 
d="M891 0h-178l28 128q-169 -111 -252 -134.5t-163 -23.5q-133 0 -218.5 84.5t-85.5 216.5q0 221 190 331.5t667 124.5l8 34q9 38 9 72q0 173 -275 173q-142 0 -352 -81h-8l40 174q201 55 362 55q413 0 413 -289q0 -55 -16 -125zM850 596q-380 -19 -511 -92.5t-131 -206.5
q0 -171 208 -171q144 0 358 143zM1112 1690l-314 -379h-208l-147 379h132l135 -273l260 273h142z" />
    <glyph glyph-name="ecaron.ital" horiz-adv-x="1176" 
d="M1092 551h-835q-5 -46 -5 -86q0 -165 101.5 -255t280.5 -90q218 0 379 113h9l-46 -190q-229 -69 -366 -69q-251 0 -394.5 125t-143.5 350q0 300 176.5 504.5t444.5 204.5q203 0 314 -104.5t111 -299.5q0 -66 -14 -140zM279 676h662q7 41 7 88q0 252 -275 252
q-144 0 -251.5 -92t-142.5 -248zM1110 1690l-314 -379h-208l-147 379h132l135 -273l260 273h142z" />
    <glyph glyph-name="glyph607" horiz-adv-x="1176" 
d="M1092 551h-835q-5 -46 -5 -86q0 -165 101.5 -255t280.5 -90q218 0 379 113h9l-46 -190q-229 -69 -366 -69q-251 0 -394.5 125t-143.5 350q0 300 176.5 504.5t444.5 204.5q203 0 314 -104.5t111 -299.5q0 -66 -14 -140zM279 676h662q7 41 7 88q0 252 -275 252
q-144 0 -251.5 -92t-142.5 -248zM1028 1600q0 -125 -94 -213.5t-225 -88.5q-116 0 -191.5 69t-75.5 176q0 123 93.5 211t225.5 88q118 0 192.5 -68.5t74.5 -173.5zM896 1596q0 146 -141 146q-82 0 -131.5 -57t-49.5 -140q0 -147 141 -147q79 0 130 56.5t51 141.5z" />
    <glyph glyph-name="uni1EBD.ital" horiz-adv-x="1176" 
d="M1092 551h-835q-5 -46 -5 -86q0 -165 101.5 -255t280.5 -90q218 0 379 113h9l-46 -190q-229 -69 -366 -69q-251 0 -394.5 125t-143.5 350q0 300 176.5 504.5t444.5 204.5q203 0 314 -104.5t111 -299.5q0 -66 -14 -140zM279 676h662q7 41 7 88q0 252 -275 252
q-144 0 -251.5 -92t-142.5 -248zM1144 1633q-75 -306 -288 -306q-99 0 -162 79q-71 89 -132 89q-92 0 -130 -172h-123q34 146 110 226t177 80q94 0 160 -78q76 -90 133 -90q94 0 132 172h123z" />
    <glyph glyph-name="uni01D0.ital" horiz-adv-x="524" 
d="M480 1126l-260 -1126h-178l260 1126h178zM840 1690l-314 -379h-208l-147 379h132l135 -273l260 273h142z" />
    <glyph glyph-name="glyph610" horiz-adv-x="524" 
d="M480 1126l-260 -1126h-178l260 1126h178zM764 1600q0 -125 -94 -213.5t-225 -88.5q-116 0 -191.5 69t-75.5 176q0 123 93.5 211t225.5 88q118 0 192.5 -68.5t74.5 -173.5zM632 1596q0 146 -141 146q-82 0 -131.5 -57t-49.5 -140q0 -147 141 -147q79 0 130 56.5t51 141.5z
" />
    <glyph glyph-name="itilde.ital" horiz-adv-x="524" 
d="M480 1126l-260 -1126h-178l260 1126h178zM872 1633q-75 -306 -288 -306q-99 0 -162 79q-71 89 -132 89q-92 0 -130 -172h-123q34 146 110 226t177 80q94 0 160 -78q76 -90 133 -90q94 0 132 172h123z" />
    <glyph glyph-name="uni01D2.ital" horiz-adv-x="1207" 
d="M519 -32q-209 0 -328 119.5t-119 329.5q0 305 175 523t445 218q207 0 325 -121.5t118 -330.5q0 -307 -175.5 -522.5t-440.5 -215.5zM673 1013q-186 0 -301.5 -170.5t-115.5 -421.5q0 -308 277 -308q187 0 302.5 170.5t115.5 422.5q0 307 -278 307zM1130 1690l-314 -379
h-208l-147 379h132l135 -273l260 273h142z" />
    <glyph glyph-name="glyph613" horiz-adv-x="1207" 
d="M519 -32q-209 0 -328 119.5t-119 329.5q0 305 175 523t445 218q207 0 325 -121.5t118 -330.5q0 -307 -175.5 -522.5t-440.5 -215.5zM673 1013q-186 0 -301.5 -170.5t-115.5 -421.5q0 -308 277 -308q187 0 302.5 170.5t115.5 422.5q0 307 -278 307zM1068 1600
q0 -125 -94 -213.5t-225 -88.5q-116 0 -191.5 69t-75.5 176q0 123 93.5 211t225.5 88q118 0 192.5 -68.5t74.5 -173.5zM936 1596q0 146 -141 146q-82 0 -131.5 -57t-49.5 -140q0 -147 141 -147q79 0 130 56.5t51 141.5z" />
    </font>
</defs>
</svg>
